Watch NJPW World Tag League 2020 12 06 Japan/ English

Watch NJPW World Tag League 2020 12 06 Day 9 Best Of The Super Jr 27 Japan/ English DX-TV

Watch NJPW World Tag League 2020

 

 Watch NJPW World Tag League 2020

 

[su_expand more_text=”Show More Info” less_text=”Close all Info” height=”50″ text_color=”#000000″ link_color=”#e25f8b” link_style=”button” more_icon=”icon: arrow-down” less_icon=”icon: arrow-up”]
Complete name : NJPW.2020.12.06.World.Tag.League.2020.Best.Of.The.Super.Jr.27.Day.9.ENGLISH.WEB.h264-LATE.mkv
Format : Matroska
Format version : Version 4
File size : 2.61 GiB
Duration : 3 h 12 min
Overall bit rate : 1 943 kb/s

Video
ID : 1
Format : AVC
Codec ID : V_MPEG4/ISO/AVC
Duration : 3 h 12 min
Bit rate : 1 840 kb/s
Width : 960 pixels
Height : 540 pixels
Display aspect ratio : 16:9
Frame rate mode : Constant
Frame rate : 30.000 FPS
Color space : YUV
Chroma subsampling : 4:2:0
Bit depth : 8 bits
Scan type : Progressive
Bits/(Pixel*Frame) : 0.118
Stream size : 2.47 GiB (95%)
Default : Yes
Forced : No
Color range : Limited
Color primaries : BT.601 PAL
Transfer characteristics : BT.601
Matrix coefficients : BT.470 

Watch NJPW World Tag League 2020

Audio
ID : 2
Format : AAC LC
Format/Info : Advanced Audio
Codec ID : A_AAC-2
Duration : 3 h 12 min
Bit rate : 100.0 kb/s
Channel(s) : 2 channels
Channel layout : L R
Sampling rate : 44.1 kHz
Frame rate : 43.066 FPS (1024 SPF)
Compression mode : Lossy
Stream size : 137 MiB (5%)
Language : English
Default : Yes
Forced : No

 NJPW World Tag League 2020

Complete name : NJPW.2020.12.06.World.Tag.League.2020.Best.Of.The.Super.Jr.27.Day.9.JAPANESE.WEB.h264-LATE.mkv
Format : Matroska
Format version : Version 4
File size : 2.61 GiB
Duration : 3 h 12 min
Overall bit rate : 1 943 kb/s

Video
ID : 1
Format : AVC
Format/Info : Advanced Video
Duration : 3 h 12 min
Bit rate : 1 840 kb/s
Width : 960 pixels
Height : 540 pixels
Display aspect ratio : 16:9
Frame rate mode : Constant
Frame rate : 30.000 FPS
Color space : YUV
Chroma subsampling : 4:2:0
Bit depth : 8 bits
Scan type : Progressive
Bits/(Pixel*Frame) : 0.118
Stream size : 2.47 GiB (95%)
Default : Yes
Forced : No
Color range : Limited
Color primaries : BT.601 PAL
Transfer characteristics : BT.601
Matrix coefficients : BT.470 

Watch NJPW World Tag League 2020

Audio
ID : 2
Format : AAC LC
Format/Info : Advanced Audio
Codec ID : A_AAC-2
Duration : 3 h 12 min
Bit rate : 100 kb/s
Channel(s) : 2 channels
Channel layout : L R
Sampling rate : 44.1 kHz
Frame rate : 43.066 FPS (1024 SPF)
Compression mode : Lossy
Stream size : 137 MiB (5%)
Language : English
Default : Yes
Forced : No

 NJPW World Tag League 2020

 

[/su_expand]

 

 

Watch online

 

Server 1

 

 

 

watch  NJPW World Tag League 2020

watch now

 

 

 

 

Server-2

 

 

 

 

 NJPW World Tag League 2020

watch now

 

 

 

 

Uploaded By Site DX-TV.com

 

Download Links with premium High Speed   

 

 

 

 

dropapk.to

http://shrt10.com/3QsIgv
http://shrt10.com/Prrqgf

 

 

nitroflare.com

http://shrt10.com/o75Ctkj
http://shrt10.com/McOSl1zjt

 

 

rapidgator.net

http://shrt10.com/eryXER1
http://shrt10.com/l4CK5

 

 

uploaded.net

http://shrt10.com/147FS
http://shrt10.com/CYeKHv

 

 

uploadgig.com

http://shrt10.com/JoDqzb
http://shrt10.com/cf3Ip

 

https://dx-tv.com/wwe-raw-2020-05-04-full-show-online/

Leave a Reply

Your email address will not be published. Required fields are marked *

This site uses Akismet to reduce spam. Learn how your comment data is processed.