Tokyo Joshi Pro 2020 12 06 Fall Tour 20 Wrestling of my Mind

Tokyo Joshi Pro 2020 12 06 Fall Tour 20 Wrestling of my Mind DX-TV

Tokyo Joshi Pro

 Tokyo Joshi Pro

 

[su_expand more_text=”Show More Info” less_text=”Close all Info” height=”50″ text_color=”#000000″ link_color=”#e25f8b” link_style=”button” more_icon=”icon: arrow-down” less_icon=”icon: arrow-up”]
Complete name : C:\DX\WWE\Downloading\Tokyo.Joshi.Pro.2020.12.06.Fall.Tour.20.Wrestling.of.my.Mind.WEB.h264-LATE.mkv
Format : Matroska
Format version : Version 4
File size : 1.75 GiB
Duration : 2 h 19 min
Overall bit rate : 1 794 kb/s

Tokyo Joshi Pro

Video
ID : 1
Format : AVC
Duration : 2 h 19 min
Bit rate : 1 696 kb/s
Width : 960 pixels
Height : 540 pixels
Display aspect ratio : 16:9
Frame rate mode : Constant
Frame rate : 30.000 FPS
Color space : YUV
Chroma subsampling : 4:2:0
Bit depth : 8 bits
Scan type : Progressive
Bits/(Pixel*Frame) : 0.109
Stream size : 1.66 GiB (95%)
Default : Yes
Forced : No
Color range : Limited
Color primaries : BT.601 PAL
Transfer characteristics : BT.601
Matrix coefficients : BT.470 System

 Joshi Pro

Audio
ID : 2
Format : AAC LC
Format/Info : Advanced Audio
Codec ID : A_AAC-2
Duration : 2 h 19 min
Bit rate : 96.0 kb/s
Channel(s) : 2 channels
Channel layout : L R
Sampling rate : 44.1 kHz
Frame rate : 43.066 FPS (1024 SPF)
Compression mode : Lossy
Stream size : 96.1 MiB (5%)
Language : English
Default : Yes
Forced : No

Tokyo Joshi Pro

 

[/su_expand]

 

 

Watch online

 

Server 1

 

 

 

 

Tokyo Joshi Pro

 

 

 

Tokyo Joshi Pro

Server-2

 

 

 

 

watch now

 

 

 

 

Uploaded By Site DX-TV.com

 

Tokyo Joshi Pro 2020

Download Links with premium High Speed   

 

 

 

 

dropapk.to

 

 

 

nitroflare.com

 

 

 

rapidgator.net

 

 

 

uploaded.net

 

 

 

uploadgig.com

 

 

https://dx-tv.com/aew-dynamite-online-20-may-2020-720p/

Leave a Reply

Your email address will not be published. Required fields are marked *

This site uses Akismet to reduce spam. Learn how your comment data is processed.