Watch Wrestling Online NJPW World Tag League 2020 11 29

Watch Wrestling Online NJPW World Tag League 2020 11 29 English /Japan Day 6 DX-TV

Watch Wrestling Online NJPW World

 

 Watch Wrestling NJPW World

 

[su_expand more_text=”Show More Info” less_text=”Close all Info” height=”30″ text_color=”#000000″ link_color=”#e25f8b” link_style=”button” more_icon=”icon: arrow-down” less_icon=”icon: arrow-up”]

 

name : NJPW.2020.11.29.Best.Of.The.Super.Jr.27.Day.6.ENGLISH.720p.WEB.h264-LATE.mkv
Format : Matroska
Format version : Version 4
File size : 2.02 GiB
Duration : 2 h 24 min
Overall bit rate : 2 001 kb/s

Watch Wrestling Online NJPW World

Video
ID : 1
Format : AVC
Format/Info : Advanced
Duration : 2 h 24 min
Bit rate : 1 904 kb/s
Width : 1 280 pixels
Height : 720 pixels
Display aspect ratio : 16:9
Frame rate mode : Constant
Frame rate : 30.000 FPS
Color space : YUV
Chroma subsampling : 4:2:0
Bit depth : 8 bits
Scan type : Progressive
Bits/(Pixel*Frame) : 0.069
Stream size : 1.92 GiB (95%)
Forced : No

 Wrestling Online NJPW World

Audio
ID : 2
Format : AAC LC
Format/Info : Advanced Audio
Codec ID : A_AAC-2
Duration : 2 h 24 min
Bit rate : 96.0 kb/s
Channel(s) : 2 channels
Channel layout : L R
Sampling rate : 44.1 kHz
Frame rate : 43.066 FPS
Compression mode : Lossy
Delay relative to video : -23 ms
Stream size : 97.5 MiB (5%)
Default : Yes
Forced : No

Watch Wrestling Online NJPW World

The pace and power of the LIJ duo had Finlay in trouble until he was finally able to duck a Takagi right to bring in Juice.

Robinson took over on both opponents, but the Left hand of God met Takagi’s own left in the form of the Ryukon Lariat instead.

Tandem Dragon sleepers from SANADA and Shingo followed, but Robinson summoned the strength for a huge powerbomb to SANADA and brought in Finlay. 

 

Shingo resisted a Doomsday Device from last year’s WTL winners, and he and SANADA connected for the Noshigami .

and Ace Crusher combination the team called Skull Crusher. Juice would cut Shingo off though,

and a superplex and splash combination from FinJuice almost scored three as offense escalated.

Finlay fired up and exchanged lariats with Shingo before a Pulp Friction landed; the Prima Nocta followed for the FinJuice win. 

[/su_expand]

 

 

Watch online

 

Server 1

 

 

 

 

Watch Wrestling Online NJPW World

watch now

 

 

 

 

Server-2

 

 

 

 

Watch Wrestling Online NJPW World

watch now

 

 

 

 

Uploaded By Site DX-TV.com

 

 

 

 

Download Free Links with normal and high Speed [ more 14 hosts ]  

 

[su_expand more_text=”Show Hosts Info” less_text=”Close all Info” height=”30″ text_color=”#000000″ link_color=”#e25f8b” link_style=”button” more_icon=”icon: arrow-down” less_icon=”icon: arrow-up”]

Watch Wrestling Online NJPW World

 

hexupload.net – clicknupload.co – www.multiup.org

– uptobox.com – anonfiles.com – userscloud.com – 

 

 

[/su_expand]

 

japan

http://shrt10.com/odD0ABpLG
http://shrt10.com/IlzYy
http://shrt10.com/ItjSUc
http://shrt10.com/SIFHQ
http://shrt10.com/rARvW
http://shrt10.com/Zxwqw
http://shrt10.com/SEEME6s3

 

 

 

 

English

 

http://shrt10.com/fYczcf0GU
http://shrt10.com/dr1ES0wQP
http://shrt10.com/zZ5Ku
http://shrt10.com/hEL8me
http://shrt10.com/xgJqHD4A2
http://shrt10.com/I8Z78xx
http://shrt10.com/SYOz6

 

 

 Wrestling Online NJPW World

Download Links with premium High Speed   

 

 

 

 

dropapk.to

http://shrt10.com/15lLE673u
http://shrt10.com/u6VGFyUF

 

 

nitroflare.com

http://shrt10.com/Ln2kx4
http://shrt10.com/3iSjtiZ

 

 

rapidgator.net

http://shrt10.com/nOCkQ
http://shrt10.com/jrecy

 

 

uploaded.net

http://shrt10.com/9ec7fOk6d
http://shrt10.com/OcA1mNoWL

 

 

uploadgig.com

http://shrt10.com/lbzO8
http://shrt10.com/zFPxVrI3

 

https://dx-tv.com/free-wwe-raw-23-11-2020-full-show-online-720p-dx-tv/

Leave a Reply

Your email address will not be published. Required fields are marked *

This site uses Akismet to reduce spam. Learn how your comment data is processed.