Watch Wrestling NJPW World Tag League 2020 11 28 English

Watch Wrestling NJPW World Tag League 2020 11 28 English Day 6 DX-TV

Watch Wrestling NJPW World Tag League 2020

 

 Watch Wrestling NJPW World Tag League 2020

 

[su_expand more_text=”Show More Info” less_text=”Close all Info” height=”30″ text_color=”#000000″ link_color=”#e25f8b” link_style=”button” more_icon=”icon: arrow-down” less_icon=”icon: arrow-up”]

 

Complete name : NJPW.2020.11.28.World.Tag.League.2020.Day.6.ENGLISH.720p.WEB.h264-LATE.mkv
Format : Matroska
Format version : Version 4
File size : 1.90 GiB
Duration : 2 h 14 min
Overall bit rate : 2 032 kb/s

Watch Wrestling NJPW World Tag League 2020

Video
ID : 1
Format : AVC
Codec ID : V_MPEG4
Duration : 2 h 14 min
Bit rate : 1 904 kb/s
Width : 1 280 pixels
Height : 720 pixels
Display aspect ratio : 16:9
Frame rate mode : Constant
Frame rate : 30.000 FPS
Color space : YUV
Chroma subsampling : 4:2:0
Bit depth : 8 bits
Scan type : Progressive
Bits/(Pixel*Frame) : 0.069
Stream size : 1.78 GiB (94%)

Watch Wrestling NJPW World Tag League 2020

Audio
ID : 2
Format : AAC LC
Format/Info : Advanced Audio
Codec ID : A_AAC-2
Duration : 2 h 14 min
Bit rate : 126 kb/s
Channel(s) : 2 channels
Channel layout : L R
Sampling rate : 44.1 kHz
Frame rate : 43.066 FPS (1024 SPF)
Compression mode : Lossy
Delay relative to video : -23 ms
Stream size : 120 MiB (6%)
Language : English
Default : Yes
Forced : No

 Wrestling NJPW World Tag League 2020

As the match broke down, ZSJ blocked an EVIL attempt on Taichi but found himself shoved into the referee; Taichi thwarted Yujiro’s attack with his cane,

and Sabre stopped Togo’s appearance with the Spoiler’s Choke, but caught a low blow.

Taichi kicked EVIL low in kind, but was struck with Yujiro’s cane, allowing for an InterCollegiate Slam. Sabre blocked Pimp Juice and got two from a Japanese leg roll clutch,

before Taichi was able to enter for long enough to land Zack Mephisto for the three.  

 Wrestling NJPW World Tag League 2020

Clear at the top of the table going into the night’s proceedings, Shingo Takagi and SANADA were looking to extent their lead over a FinJuice side that badly needed to improve their own standing.

Well aware of their position, FinJuice connected well with fast tags and offense peppered at SANADA, until a quick entrance from Shingo instantly changed the flow of the match. 

[/su_expand]

 

 

Watch online

 

Server 1

 

 

 

 

watch now

 

 

 

 

Server-2

 

 

 

 

watch now

 

 

 

 

Uploaded By Site DX-TV.com

 

 

 

 

Download Free Links with normal and high Speed [ more 14 hosts ]  

 

[su_expand more_text=”Show Hosts Info” less_text=”Close all Info” height=”30″ text_color=”#000000″ link_color=”#e25f8b” link_style=”button” more_icon=”icon: arrow-down” less_icon=”icon: arrow-up”]

 

 

hexupload.net – clicknupload.co – www.multiup.org

– uptobox.com – anonfiles.com – userscloud.com –

dropapk.to alfafile.net – ddownload.com – rockfile.co

– 1fichier.com – filedown.org – katfile.com – filerio.in

 

 

[/su_expand]

 

 

 

http://shrt10.com/EbtOVihSZ
http://shrt10.com/V1Awde
http://shrt10.com/SXNOi
http://shrt10.com/6lIUI
http://shrt10.com/K1z3jG
http://shrt10.com/VxKi14
http://shrt10.com/WwmHc
http://shrt10.com/ostY04uv

 

Watch Wrestling NJPW World Tag League 2020

 

Download Links with premium High Speed   

 

 

 

 

dropapk.to

 

 

 

nitroflare.com

 

 

 

rapidgator.net

 

 

 

uploaded.net

 

 

 

uploadgig.com

 

 

https://dx-tv.com/watch-ajpw-2019-real-world-tag-league-day-3/

Leave a Reply

Your email address will not be published. Required fields are marked *

This site uses Akismet to reduce spam. Learn how your comment data is processed.