Watch UFC Fight Night 179 Prelims Free Online 2020 10 11

UFC Fight Night Prelims Moraes vs Sandhagen 2020 10 11 DX-TV

 

UFC Fight Night 179 Prelims

 

 UFC Fight Night 179 Prelims
 


 

 

Watch UFC Fight Night 179 Prelims Free Online 2020 10 11

 

 

 

 

Complete name : UFC.Fight.Night.179.Prelims.WEB-By DX-TV.com.mp4
Format : MPEG-4
Format profile : Base Media
Codec ID : isom
File size : 1.47 GiB
Duration : 2 h 59 min
Overall bit rate mode : Variable
Overall bit rate : 1 169 kb/s
Writing application : Lavf58.12.100

UFC Fight Night 179 Prelims

Video
ID : 1
Format : AVC
Duration : 2 h 59 min
Bit rate mode : Variable
Bit rate : 1 029 kb/s
Maximum bit rate : 1 069 kb/s
Width : 896 pixels
Height : 504 pixels
Display aspect ratio : 16:9
Frame rate mode : Variable
 rate : 30.000 FPS
 frame rate : 15.000 FPS 
Standard : NTSC
Color space : YUV
Chroma subsampling : 4:2:0
Bit depth : 8 bits
Scan type : Progressive
Bits/(Pixel*Frame) : 0.076
Stream size : 1.29 GiB (88%)
Color primaries : BT.709
Transfer characteristics : BT.709
Matrix coefficients : BT.709
Codec configuration box : avcC

UFC Fight Night 179 Prelims

Audio
ID : 2
Format : AAC LC
Format/Info : Advanced Audio
Codec ID : mp4a-40-2
Duration : 2 h 59 min
Bit rate mode : Variable
Bit rate : 132 kb/s
Channel(s) : 2 channels
Channel layout : L R
Sampling rate : 48.0 kHz
Frame rate : 46.875 FPS (1024 SPF)
Compression mode : Lossy
Stream size : 170 MiB (11%)
Default : Yes
Alternate group : 1

 

preliminary Card (ESPN+ 5 p.m. ET)

  • Tom Breese (-275) vs. KB Bhullar (+210)
  • Chris Daukaus (+230) vs. Rodrigo Nascimento (-305)
  • Impa Kasanganay (-250) vs. Joaquin Buckley (+195)
  • Ali Al-Qaisi (+170) vs. Tony Kelley (-220)
  • Giga Chikadze (+130) vs. Omar Morales (-162)
  • Tracy Cortez (-205) vs. Stephanie Egger (+160)
  • Bruno Silva (+317) vs. Tagir Ulanbekov (-435)

UFC Fight Night 179 Prelims

Moraes Stuns Sandhagen Early

Cory Sandhagen is the flashy pick in the main event. It makes sense on the surface.

His only loss came at a time when he was clearly caught off-guard by Sterling in the best performance of his life.

Even though it stopped some of his momentum, he’s still the relatively new name. 

Moraes is the exact opposite. A close decision-win over Aldo somehow seems to have done his reputation more harm than good.

His inactivity makes him the forgotten man in the division. 

 

Watch UFC Fight Night 179 Prelims Free Online 2020 10 11

 

 

Watch online

 

 

 

 

 

Server 1

 

 

 

 

watch now

 

 

 

UFC Fight Night 179 Prelims

Server-2

 

 

 

watch now

 

 

 

 

Server-3

 

 

 

UFC Fight Night 179 Prelims

 

 

 

 

Uploaded By Site DX-TV.com

 

 

 

 

Download Free Links with normal and high Speed [ more 14 hosts ]  

 

 

 

http://shrt10.com/A3JkYpU
http://shrt10.com/ld3PCUkMI
http://shrt10.com/4YJaJ0Y2Q
http://shrt10.com/XbfGj9
http://shrt10.com/I8zMBDAct
http://shrt10.com/iwWlVJhPw
http://shrt10.com/rFCeM2tA
http://shrt10.com/tL7K0Yrl
http://shrt10.com/W2eTIJLU
http://shrt10.com/gQTAlD
http://shrt10.com/FfAIyzDQs

 

 

 

UFC Fight Night 179 Prelims

Download Links with premium High Speed   

 

 

 

dropapk.to

 

 

 

nitroflare.com

 

 

 

rapidgator.net

 

 

 

uploaded.net

 

 

 

uploadgig.com

 

 

 

 

 

dx-tv.com

 

urlfree.net

Leave a Reply

Your email address will not be published. Required fields are marked *

This site uses Akismet to reduce spam. Learn how your comment data is processed.