Watch 720p UFC Fight Night 179 Prelims Online 2020 10 11

UFC Fight Night 179 720p Prelims Online 2020 10 11 DX-TV

 

UFC Fight Night 179

 

 UFC Fight Night 179

 

Watch 720p UFC Fight Night 179 Prelims Online 2020 10 11

 

 

 

 

Complete name : UFC.Fight.Night.179.Prelims.720p.WEB.mp4
Format : MPEG-4
Format profile : Base Media
Codec ID : isom
File size : 3.92 GiB
Duration : 2 h 59 min
Overall bit rate mode : Variable
Overall bit rate : 3 121 kb/s

UFC Fight Night 179

Video
ID : 1
Format : AVC
Duration : 2 h 59 min
Bit rate mode : Variable
Bit rate : 2 981 kb/s
Maximum bit rate : 3 159 kb/s
Width : 1 280 pixels
Height : 720 pixels
Display aspect ratio : 16:9
Frame rate mode : Variable
Frame rate : 30.000 FPS 
Standard : NTSC
Color space : YUV
Chroma subsampling : 4:2:0
Bit depth : 8 bits
Scan type : Progressive
Bits/(Pixel*Frame) : 0.108
Stream size : 3.74 GiB (96%)
Color primaries : BT.709
Transfer characteristics : BT.709
Matrix coefficients : BT.709
Codec configuration box : avcC

UFC Fight Night 179

Audio
ID : 2
Format : AAC LC
Format/Info : Advanced Audio
Codec ID : mp4a-40-2
Duration : 2 h 59 min
Bit rate mode : Variable
Bit rate : 132 kb/s
Channel(s) : 2 channels
Channel layout : L R
Sampling rate : 48.0 kHz
Frame rate : 46.875 FPS (1024 SPF)
Compression mode : Lossy
Stream size : 170 MiB (4%)
Default : Yes
Alternate group : 1

UFC Fight Night 179

Moraes Stuns Sandhagen Early

Cory Sandhagen is the flashy pick in the main event. It makes sense on the surface. His only loss came at a time when he was clearly caught off-guard by Sterling in the best performance of his life. Even though it stopped some of his momentum, he’s still the relatively new name. 

Moraes is the exact opposite. A close decision-win over Aldo somehow seems to have done his reputation more harm than good. His inactivity makes him the forgotten man in the division. 

That doesn’t detract from his skills in the cage, though. The Brazilian is a dangerous striker who can find a home for his hooks or head kick and change the fight at any moment.

UFC Fight Night 179

Dealing with Sandhagen’s length will be a tall task. The 28-year-old is four inches taller and holds a three-inch reach advantage. He’s good at fighting from distance and has caused problems for anyone who has decided to strike with him. 

The problem is he’s also prone to firefights. His defense leaves a lot to be desired for such a rangy fighter, and he gets hit more often than he should. It doesn’t matter since he’s able to win on volume so often, but against someone with Moraes’ power, there could be a problem. 

If Sandhagen gets caught—especially early when Moraes tends to be a strong starter—it could be a surprisingly short night for him. 

Prediction: Moraes via first-round TKO

 

Watch 720p UFC Fight Night 179 Prelims Online 2020 10 11

 

 

 

 

Watch online

 

 

 

 

 

Server 1

 

 

 

 

watch now

 

 

 

 

Server-2

 

 

 

watch now

 

 

 

 

Server-3

 

 

 

UFC Fight Night 179

 

 

 

 

Uploaded By Site DX-TV.com

 

 

 

 

Download Free Links with normal and high Speed [ more 14 hosts ]  

 

 

 

 

http://shrt10.com/Xgv29qy2q
http://shrt10.com/YRg87a
http://shrt10.com/FM0DGT
http://shrt10.com/arJYLsfGi
http://shrt10.com/RjJR4
http://shrt10.com/kVDYle
http://shrt10.com/C0ms0Noiy
http://shrt10.com/dl0YltFnQ

 

 

 

Download Links with premium High Speed   

 

 

 

 

dropapk.to

 

 

 

nitroflare.com

 

 

 

rapidgator.net

 

 

 

uploaded.net

 

 

 

uploadgig.com

 

 

 

 

 

dx-tv.com

 

urlfree.net

Leave a Reply

Your email address will not be published. Required fields are marked *

This site uses Akismet to reduce spam. Learn how your comment data is processed.