Watch SmackDown 2020 10 09 WWE Full Show Online

WWE SmackDown 2020 10 09 HDTV Star DX-TV

 

Watch SmackDown 2020 10 09

 

 Watch SmackDown 2020 10 09
 


 

 

Watch SmackDown 2020 10 09 WWE Full Show Online

 

Jeff Hardy & Matt Riddle def. The Miz & John Morrison; Lars Sullivan made a shocking return

In a Twitter exchange earlier in the day, Jeff Hardy & Matt Riddle expressed their desire to team up. The Miz & John Morrison were more than happy to give them the opportunity.

The Charismatic Enigma & The Original Bro showed the chemistry of a long-time team, as they dominated points of the match.

Riddle clinched the victory for the newly-formed tandem with a crushing Bro Derek to The Miz.

The fireworks came after the bell, as Lars Sullivan made a shocking return to WWE action. “The Freak” laid waste to Hardy,

Riddle and Miz, as he showed off his colossal strength. What could the return of Sullivan, who is eligible to be drafted on Monday, possibly mean for the WWE landscape?

Watch SmackDown 2020 10 09

Complete name : WWE.Friday.Night.SmackDown.2020.10.09.HDTV.x264-Star.mp4
Format : MPEG-4
Format profile : Base Media
Codec ID : mp42
File size : 1.03 GiB
Duration : 1 h 40 min
Overall bit rate : 1 466 kb/s

Watch SmackDown 2020 10 09

Video
ID : 1
Format : AVC
Duration : 1 h 40 min
Bit rate : 1 300 kb/s
Width : 720 pixels
Height : 478 pixels
Display aspect ratio : 16:9
Frame rate mode : Constant
Frame rate : 29.970 FPS
Color space : YUV
Chroma subsampling : 4:2:0
Bit depth : 8 bits
Scan type : Progressive
Bits/(Pixel*Frame) : 0.126
Stream size : 936 MiB (88%)
Color range : Limited
Color primaries : BT.601 NTSC
Transfer characteristics : BT.709
Matrix coefficients : BT.601
Codec configuration box : avcC

Watch SmackDown 2020 10 09

Audio
ID : 2
Format : AAC LC
Format/Info : Advanced Audio
Codec ID : mp4a-40-2
Duration : 1 h 40 min
Bit rate mode : Constant
Bit rate : 161 kb/s
Channel(s) : 2 channels
Channel layout : L R
Sampling rate : 48.0 kHz
Frame rate : 46.875 FPS (1024 SPF)
Compression mode : Lossy
Stream size : 116 MiB (11%)
Title : Stereo
Default : Yes
Alternate group : 1

 

 

 

Watch SmackDown 2020 10 09 WWE Full Show Online

 

 

 

 

Watch online

 

 

 

 

 

Server 1

 

 

 

 

watch now

 

 

 

 

Server-2

 

 

 

watch now

 

 

 

 

Server-3

 

 

 

Watch SmackDown 2020 10 09

 

 

 

 

Uploaded By Site DX-TV.com

 

 

 

 

Download Free Links with normal and high Speed [ more 14 hosts ]  

 

 

 

 

http://shrt10.com/XWJhLkRZ
http://shrt10.com/MTsoUE
http://shrt10.com/J7QEp
http://shrt10.com/xUxJGw
http://shrt10.com/h4CJmOpuQ
http://shrt10.com/1YCJnQgvC
http://shrt10.com/NxoGpLn
http://shrt10.com/ygkn5qs6
http://shrt10.com/PWSkPE4j
http://shrt10.com/s1PvX5J
http://shrt10.com/pd7GVTmjI
http://shrt10.com/XmLnY

 

 

 

Download Links with premium High Speed   

 

 

 

 

dropapk.to

 

 

 

nitroflare.com

 

 

 

rapidgator.net

 

 

 

uploaded.net

 

 

 

uploadgig.com

 

 

 

 

 

dx-tv.com

 

urlfree.net

Leave a Reply

Your email address will not be published. Required fields are marked *

This site uses Akismet to reduce spam. Learn how your comment data is processed.