WWE Story Time S04E01 Full Show Online

Watch WWE Story Time S04E01 Full Show Online 1080p DX-TV

 

WWE Story Time

 

 WWE Story Time

 

WWE Story Time S04E01 Full Show Online

 

 

S1 | E1: Travelers’ Tales

Take a trip down memory lane with some of the most outrageous road stories in sports entertainment, as WWE Legends .

and Superstars provide colorful examples of how life on the road has its ups and downs. Ric Flair is jet-flyin’,

Bubba Ray Dudley tests the limits of his rental car on the raceway, Ron Simmons gets left out in the cold, and more

WWE Story Time

Complete name : WWE.Story.Time.S04E01.1080p.WEB.h264-HEEL.mp4
Format : MPEG-4
Format profile : Base Media
Codec ID : isom
File size : 857 MiB
Duration : 15 min 33 s
Overall bit rate : 7 695 kb/s
Writing application : Lavf58.32.104

WWE Story Time

Video
ID : 1
Format : AVC
Format/Info : Advanced Video Codec 
Duration : 15 min 33 s
Bit rate : 7 808 kb/s
Width : 1 920 pixels
Height : 1 080 pixels
Display aspect ratio : 16:9
Frame rate mode : Constant
Frame rate : 30.000 FPS
Color space : YUV
Chroma subsampling : 4:2:0
Bit depth : 8 bits
Scan type : Progressive
Bits/(Pixel*Frame) : 0.126
Stream size : 834 MiB (97%)

WWE Story Time

Audio
ID : 2
Format : AAC LC
Format/Info : Advanced Audio
Codec ID : mp4a-40-2
Duration : 15 min 33 s
Bit rate mode : Constant
Bit rate : 192 kb/s
Channel(s) : 2 channels
Channel layout : L R
Sampling rate : 48.0 kHz
Frame rate : 46.875 FPS (1024 SPF)
Compression mode : Lossy
Stream size : 21.5 MiB (3%)
Default : Yes
Alternate group : 1

 

 

 

WWE Story Time S04E01 Full Show Online

 

 

Watch online

 

 

Server 1

 

 

 

 

watch now

 

 

 

 

Server-2

 

 

 

WWE Story Time

 

WWE Story Time

 

 

Server-3

 

 

 

watch now

 

 

 

 

Uploaded By Site DX-TV.com

 

 

 

 

Download Free Links with normal and high Speed [ more 14 hosts ]  

 

 

http://shrt10.com/OQqf0p

http://shrt10.com/QWX5XZC
http://shrt10.com/ztbjmRz
http://shrt10.com/fcRvRz
http://shrt10.com/HYoY5jXgV
http://shrt10.com/GhtLjLi4
http://shrt10.com/lWb1DfM
http://shrt10.com/eRz8F
http://shrt10.com/DnAWFD
http://shrt10.com/yDwHbzxqH
http://shrt10.com/RRmYk

 

 

 

 

Download Links with premium High Speed   

 

 

 

 

dropapk.to

 

 

 

nitroflare.com

 

 

 

rapidgator.net

 

 

 

uploaded.net

 

 

 

uploadgig.com

 

 

 

 

 

dx-tv.com

 

urlfree.net

Leave a Reply

Your email address will not be published. Required fields are marked *

This site uses Akismet to reduce spam. Learn how your comment data is processed.