SmackDown 2020 10 09 WWE 720p Full Show Online

Watch WWE SmackDown 2020 10 09 720p HDTV Star DX-TV

 

WWE SmackDown

 

 WWE SmackDown
 


 

 

SmackDown 2020 10 09 WWE 720p Full Show Online

 

Sasha Banks def. Bayley via disqualification

After the brutal attacks from her former best friend, Sasha Banks rushed back from injury to get an opportunity to end Bayley’s historic title reign. The Boss was on fire early, as the rage was evident from the opening bell. With the challenger in control, Bayley opted for an easy way out and once again attacked Banks with a steel chair. The SmackDown Women’s Champion retained her title due to the champion’s advantage, but it was clear the bad blood is still boiling. Banks made one final statement, as she challenged Bayley to meet her at WWE Hell in a Cell.

WWE SmackDown

Complete name : WWE.Friday.Night.SmackDown.2020.10.09.720p.HDTV.x264-Star.mkv
Format : Matroska
Format version : Version 4
File size : 3.65 GiB
Duration : 1 h 40 min
Overall bit rate : 5 182 kb/s
Writing library : Lavf58.29.100

WWE SmackDown

Video
ID : 1
Format : AVC
Duration : 1 h 40 min
Bit rate : 5 000 kb/s
Width : 1 280 pixels
Height : 720 pixels
Display aspect ratio : 16:9
Frame rate mode : Constant
Frame rate : 29.970 FPS
Color space : YUV
Chroma subsampling : 4:2:0
Bit depth : 8 bits
Scan type : Progressive
Bits/(Pixel*Frame) : 0.181
Stream size : 3.45 GiB (94%)
Color range : Limited
Color primaries : BT.709
Transfer characteristics : BT.709
Matrix coefficients : BT.709

WWE SmackDown

Audio
ID : 2
Format : AC-3
Format/Info : Audio Coding 3
Commercial name : Dolby Digital
Codec ID : A_AC3
Duration : 1 h 40 min
Bit rate mode : Constant
Bit rate : 192 kb/s
Channel(s) : 2 channels
Channel layout : L R
Sampling rate : 48.0 kHz
Frame rate : 31.250 FPS
Compression mode : Lossy
Delay relative to video : -5 ms
Stream size : 139 MiB (4%)
Title : Stereo
Service kind : Complete Main
Default : Yes
Forced : No

 

SmackDown 2020 10 09 WWE 720p Full Show Online

 

 

 

 

Watch online

 

 

 

 

 

Server 1

 

 

 

 

WWE SmackDown

 

 

 

 

Server-2

 

 

 

WWE SmackDown

 

 

 

 

Server-3

 

 

 

watch now

 

 

 

 

Uploaded By Site DX-TV.com

 

 

 

 

Download Free Links with normal and high Speed [ more 14 hosts ]  

 

 

 

 

http://shrt10.com/CPfSTspyf
http://shrt10.com/78dv2vGL
http://shrt10.com/szd0hBp7t
http://shrt10.com/nwcOWtTNe
http://shrt10.com/81b7C4dHC
http://shrt10.com/fTknx
http://shrt10.com/uIO2TEztw
http://shrt10.com/Xj51Q1
http://shrt10.com/YIeZtB

 

 

 

Download Links with premium High Speed   

 

 

dropapk.to

 

 

 

nitroflare.com

 

 

 

rapidgator.net

 

 

 

uploaded.net

 

 

 

uploadgig.com

 

 

 

 

 

dx-tv.com

 

urlfree.net

Leave a Reply

Your email address will not be published. Required fields are marked *

This site uses Akismet to reduce spam. Learn how your comment data is processed.