Watch ROH Wrestling 2020 09 18 1080p

ROH Wrestling 2020 09 18 1080p DX-TV

 

ROH Wrestling

 

 ROH Wrestling
 


 

 

Watch ROH Wrestling 2020 09 18 1080p

 

 

Jay Lethal’s post-match comments

Lethal said it was hard to get his second wind during the match because he couldn’t feed off the fans’ energy in an empty arena,

but he overcame it. He said he’s never faced Rocky Romero or David Finlay in a singles match,

but he doesn’t care which one of them he faces in the next round because he knows either of them will push him to the limit, which is what he wants.

Lethal said he will become the only two-time ROH Pure Champion.

ROH Wrestling

Jonathan Gresham’s post-match comments

Gresham said nothing will stop him from reaching his destiny, which is reshaping ROH from the ground up. He said neither Delirious nor Matt Sydal.

one of whom will face him in the next round — will stop him from doing what must be done.

ROH Wrestling

Block A First-Round Match: Rocky Romero vs. David Finlay

It was mentor versus student, as the veteran Romero took on the former New Japan Pro-Wrestling young lion Finlay. Romero applied the Diablo Armbar,

which forced Finlay to use his first rope break a little over a minute into the match.

Finlay locked on a Camel Clutch and transitioned into a seated Cobra Clutch. Romero escaped and hit a springboard DDT,

and then began working over Finlay’s surgically repaired left shoulder. ROH Wrestling

Romero connected on a double stomp off the top rope onto the spine of Finlay, who was draped over the middle rope.

Finlay rallied and applied a leglock submission, but Romero used his first rope break.

ROH Wrestling

Romero hit standing Sliced Bread for a near fall, but was issued a warning for using a closed fist to the head. ROH Wrestling

Romero locked on the Diablo Armbar, but Finlay again managed to get to the ropes. Romero went for Sliced Bread,

but Finlay countered with a backbreaker for a near fall. Finlay followed with Last Shot to score the pin at 13:02.

 

Complete name : ROH.Wrestling.Ep.470.18th.Sept.2020.1080p.WEBRip.h264-TJ.mp4
Format : MPEG-4
Format profile : Base Media
Codec ID : isom
File size : 1.31 GiB
Duration : 50 min 45 s
Overall bit rate mode : Variable
Overall bit rate : 3 689 kb/s
Writing application : Lavf58.51.101

ROH Wrestling

Video
ID : 1
Format : AVC
Codec ID : avc1
Codec ID/Info : Advanced
Duration : 50 min 45 s
Bit rate : 3 489 kb/s
Width : 1 920 pixels
Height : 1 080 pixels
Display aspect ratio : 16:9
Frame rate mode : Constant
rate : 29.970 (30000/1001) FPS
Color space : YUV
Chroma : 4:2:0
Bit depth : 8 bits
Scan type : Progressive
Bits/(Pixel*Frame) : 0.056
Stream size : 1.24 GiB (95%)
Writing library : Zencoder
Codec configuration box : avcC

Audio
ID : 2
Format : AAC LC
Format/Info : Advanced y
Codec ID : mp4a-40-2
Duration : 50 min 45 s
Bit rate mode : Variable
Bit rate : 192 kb/s ROH Wrestling
Maximum bit rate : 201 kb/s
Channel(s) : 2 channels
Channel layout : L R
Sampling rate : 48.0 kHz
Frame rate : 46.875 FPS (1024 SPF)
Compression mode : Lossy
Stream size : 69.6 MiB (5%)
Default : Yes
Alternate group : 1

 

 

 

Watch ROH Wrestling 2020 09 18 1080p

 

 

 

 

Watch online

 

 

 

 

 

Server 1

 

 

 

 

watch now

 

 

 

 

Server-2

 

 

 

watch now

 

 

 

 

Server-3

 

 

 

Wrestling

 

 

 

 

Uploaded By Site DX-TV.com

 

 

 

 

Download Free Links with normal and high Speed [ more 15 hosts ]  

 

 

 

http://shrt10.com/9Jqmgyb0
http://shrt10.com/RkYRFCrwi
http://shrt10.com/xsD6jyG
http://shrt10.com/KwkMY
http://shrt10.com/N8urrZk
http://shrt10.com/re2vT
http://shrt10.com/HJMTh6JZA
http://shrt10.com/zvphG
http://shrt10.com/CfNHO84Wa
http://shrt10.com/lhqIx
http://shrt10.com/RfcR3
http://shrt10.com/7hPA4
http://shrt10.com/GIKbwK

 

 

 

 

Download Links with premium High Speed   

 

 

 

 

 

 

uploaded.net

 

 

 

nitroflare.com

 

 

 

rapidgator.net

 

 

 

uploadgig.com

 

 

 

 

 

dx-tv.com

 

urlfree.net

Leave a Reply

Your email address will not be published. Required fields are marked *

This site uses Akismet to reduce spam. Learn how your comment data is processed.