Watch WWE Raw Talk 2020 09 21 1080p Free

WWE Raw Talk 2020 09 21 1080p FreeDX-TV

 

Watch WWE Raw

 

 WWE RAW
 


 

 

Watch WWE Raw Talk 2020 09 21 1080p Free

 

 

 

 

Complete name : WWE.Raw.Talk.2020.09.21.1080p.WEB.h264-HEEL.mp4
Format : MPEG-4
Format profile : Base Media
Codec ID : isom
File size : 843 MiB
Duration : 21 min 0 s
Overall bit rate : 5 612 kb/s
application : Lavf58.32.104

Watch WWE Raw

Video
ID : 1
Format : AVC
Duration : 21 min 0 s
Bit rate : 5 476 kb/s
Width : 1 920 pixels
Height : 1 080 pixels
Display aspect ratio : 16:9
Frame rate mode : Variable
Frame rate : 30.000 FPS
Color space : YUV
Chroma subsampling : 4:2:0
Bit depth : 8 bits
Scan type : Progressive
Bits/(Pixel*Frame) : 0.088
Stream size : 823 MiB (98%)
Codec configuration box : avcC

Watch WWE Raw

Audio
ID : 2
Format : AAC LC
Format/Info : Advanced
Codec ID : mp4a-40-2
Duration : 21 min 0 s
Bit rate mode : Constant
Bit rate : 125 kb/s
Channel(s) : 2 channels
Channel layout : L R
Sampling rate : 48.0 kHz
Frame rate : 46.875 FPS (1024 SPF)
Compression mode : Lossy
Stream size : 18.8 MiB (2%)
Default : Yes
Alternate group : 1

Text #1
ID : 1-CC1
Format : EIA-608
Muxing mode : SCTE 128 / DTVCC Transport
Muxing mode, more info : Muxed in Video #1
Duration : 21 min 0 s
Bit rate mode : Constant
Stream size : 0.00 Byte (0%)
Caption  Service  Name : CC1

Watch WWE Raw

Text #2
ID : 1-CC3
Format : EIA-608
Muxing mode : SCTE 128 / DTVCC Transport
Muxing mode, more info : Muxed in Video #1
Duration : 21 min 0 s
Bit rate mode : Constant
Stream size : 0.00 Byte (0%)
Caption Service Name : CC3

Text #3
ID : 1-T4
Format : EIA-608
Muxing mode : SCTE 128 / DTVCC Transport
Muxing mode, more info : Muxed in Video #1
Duration : 21 min 0 s
Bit rate mode : Constant
Stream size : 0.00 Byte (0%)
CaptionServiceName : T4

Watch WWE Raw

Text #4
ID : 1-1
Format : EIA-708
Muxing mode : SCTE 128 / DTVCC Transport
Muxing mode, more info : Muxed in Video #1
Duration : 21 min 0 s
Bit rate mode : Constant
Stream size : 0.00 Byte (0%)

Text #5
ID : 1-2
Format : EIA-708
Muxing mode : SCTE 128 / DTVCC Transport
Muxing mode, more info : Muxed in Video #1
Duration : 21 min 0 s
Bit rate mode : Constant
Stream size : 0.00 Byte (0%)

Text #6
ID : 1-3
Format : EIA-708
Muxing mode : SCTE 128 / DTVCC Transport
Muxing mode, more info : Muxed in Video #1
Duration : 21 min 0 s
Bit rate mode : Constant
Stream size : 0.00 Byte (0%)

Text #7
ID : 1-4
Format : EIA-708
Muxing mode : SCTE 128 / DTVCC Transport
Muxing mode, more info : Muxed in Video #1
Duration : 21 min 0 s
Bit rate mode : Constant
Stream size : 0.00 Byte (0%)

Watch WWE Raw

Text #8
ID : 1-5
Format : EIA-708
Muxing mode : SCTE 128 / DTVCC Transport
Muxing mode, more info : Muxed in Video #1
Duration : 21 min 0 s
Bit rate mode : Constant
Stream size : 0.00 Byte (0%)

Text #9
ID : 1-6
Format : EIA-708
Muxing mode : SCTE 128 / DTVCC Transport
Muxing mode, more info : Muxed in Video #1
Duration : 21 min 0 s
Bit rate mode : Constant
Stream size : 0.00 Byte (0%)

 

 

 

Watch WWE Raw Talk 2020 09 21 1080p Free

 

 

 

 

Watch online

 

 

 

 

 

Server 1

 

 

 

 

Watch WWE Raw

 

 

 

 

Server-2

 

 

 

watch now

 

 

 

 

Server-3

 

 

 

watch now

 

 

 

 

Uploaded By Site DX-TV.com

 

 

 

 

Download Free Links with normal and high Speed [ more 15 hosts ]  

 

 

 

http://shrt10.com/e9yaid9R
http://shrt10.com/U22zl
http://shrt10.com/8AMM0VNIO
http://shrt10.com/4gHykyWN
http://shrt10.com/kaZbFgeAe
http://shrt10.com/R9ctaY
http://shrt10.com/qyr4JZ
http://shrt10.com/RnZbgC
http://shrt10.com/Ruk0Z6wfx
http://shrt10.com/RrqUC5ye
http://shrt10.com/n1ryI2Cdc
http://shrt10.com/V0qIdn2Oi

 

 

 

 

Download Links with premium High Speed   

 

 

 

 

 

 

 

uploaded.net

 

 

 

nitroflare.com

 

 

 

rapidgator.net

 

 

 

uploadgig.com

 

 

 

 

 

dx-tv.com

 

urlfree.net

Leave a Reply

Your email address will not be published. Required fields are marked *

This site uses Akismet to reduce spam. Learn how your comment data is processed.