NOAH 2020 09 20 Night 1 Victory 2020 Day 2

Watch NOAH 2020 09 20 Night 1 Victory 2020 Day 2 DX-TV

 

NOAH Victory 2020

 

 NOAH Victory 2020

 

NOAH 2020 09 20 Night 1 Victory 2020 Day 2

 

PRO WRESTLING NOAH
N1 VICTORY 2020 NIGHT 2
SEPTEMBER 20, 2020
NEW SUNPAI TAKASAKI
TAKASAKI, GUNMA

 

After a very successful first night in Nagoya, the N1 marches on to Takasaki with a smaller crowd, a single camera, a house show vibe and a slate of matches that seem to take this all into account. The show’s entire runtime is just about two hours so let us give our thanks to the merciful ark and get into it. Here are the non-tournament results:

  • Nioh def. Kinya Okada
  • Daisuke Harada, YO-HEY, Go Shiozaki, Kaito Kiyomiya def. Hao, Tadasuke, Kenoh, Katsuhiko Nakajima

It should be noted that even with all these deliciously pinnacle juniors, Shiozaki gets the fall over Nakajima here. After, the two are joined by Kenoh and Kiyomiya for a series of post-match promos where the four talk a whole bunch of shit at one another. 

NOAH Victory 2020

N1 VICTORY 2020 B BLOCK
NAOMICHI MARUFUJI (2) DEF. YOSHINO INAMURA (0)

Everyone’s got a wrestler or two they can’t help but view with rose-tinted glasses. Mine is Naomichi Marufuji. Even at his slowest, sleepiest and night-off-iest, all he has to do is run through a few of his signature spots and you’ll find me in your favorite Discord saying, “I don’t know guys, I thought that match was pretty good.” Now that I’ve gotten that out of the way, I thought this match was pretty good. 

NOAH Victory 2020

The first chunk of the match is built on Marufuji working Inamura’s arm. The arm stuff never goes anywhere, every so often Inamura remembers to shake it a little, but it doesn’t really need to. It’s just a starting point for Maru to break down this young, beefy lunkhead across from him. Throughout, it’s clear that Inamura is outmatched by his veteran opponent in terms of ability, but has no shortage of pure strength and fire to draw from. It’s a story they tell well in a simple match. Inamura is great for a screaming comeback and hard strike exchange, and he’s got a big ol’ resonant ass chest for Marufuji’s chops. Maru takes control with all the knees and kick combos I’m a sucker for and wraps things up with a Wrist Clutch Ko-oh that looks like total murder

NOAH Victory 2020

 

Complete name : NOAH.2020.09.20.N1.Victory.2020.Day.2.WEB.h264-LATE.mkv
Format : Matroska
Format version : Version 4
File size : 1.70 GiB
Duration : 2 h 9 min
Overall bit rate : 1 889 kb/s

NOAH Victory 2020

Video
ID : 1
Format : AVC
Duration : 2 h 8 min
Bit rate : 1 790 kb/s
Width : 960 pixels
Height : 540 pixels
Display aspect ratio : 16:9
Frame rate mode : Constant
Frame rate : 30.000 FPS
Color space : YUV
Chroma : 4:2:0
Bit depth : 8 bits
Scan type : Progressive
Bits/(Pixel*Frame) : 0.115
Stream size : 1.61 GiB (95%)
Default : Yes
Forced : No
Color range : Limited
Color primaries : BT.601 PAL
Transfer characteristics : BT.601
Matrix coefficients : BT.470 System B/G

NOAH Victory 2020

Audio
ID : 2
Format : AAC LC
Format/Info : Advanced Audio
Codec ID : A_AAC-2
Duration : 2 h 9 min
Bit rate : 96.0 kb/s
Channel(s) : 2 channels
Channel layout : L R
Sampling rate : 44.1 kHz
Frame rate : 43.066 FPS (1024 SPF)
Compression mode : Lossy
Delay relative to video : -166 ms
Stream size : 88.6 MiB (5%)
Language : English
Default : Yes
Forced : No

 

 

 

NOAH 2020 09 20 Night 1 Victory 2020 Day 2

 

 

 

 

Watch online

 

 

 

 

 

Server 1

 

 

 

 

watch now

 

 

 

 

Server-2

 

 

 

NOAH Victory 2020

 

 

 

 

Server-3

 

 

 

watch now

 

 

 

 

Uploaded By Site DX-TV.com

 

 

 

 

Download Free Links with normal and high Speed [ more 15 hosts ]  

 

 

http://shrt10.com/pikG9tHGJ
http://shrt10.com/lJCzus
http://shrt10.com/xpb1T9
http://shrt10.com/fK7KL17u
http://shrt10.com/pFvkwK
http://shrt10.com/74WnCDyj
http://shrt10.com/9pFvp6
http://shrt10.com/lbE65
http://shrt10.com/X2yQnw
http://shrt10.com/R0ue6B8y
http://shrt10.com/BE7ekgyL
http://shrt10.com/DxMieo
http://shrt10.com/KvcC04fu

 

 

 

 

 

Download Links with premium High Speed   

 

 

 

 

 

 

 

uploaded.net

 

 

 

nitroflare.com

 

 

 

rapidgator.net

 

 

 

uploadgig.com

 

 

 

 

 

dx-tv.com

 

urlfree.net

Leave a Reply

Your email address will not be published. Required fields are marked *

This site uses Akismet to reduce spam. Learn how your comment data is processed.