Watch ROH Final Battle 2020 Free Online 1080p DX-TV

Watch ROH Final Battle 2020 Free Online 540p /720p/1080p DX-TV

Watch ROH Final Battle 2020

 Watch ROH Final Battle 2020 Free Online

 

Download Links with premium High Speed   

 

 

dropapk.to

http://shrt10.com/CcYHOLsp          540p
http://shrt10.com/pMea4               720p
http://shrt10.com/TMYoYd             1080p

 

 

nitroflare.com

http://shrt10.com/sSmMFGOlL      540p
http://shrt10.com/rzutcfMXK        720p
http://shrt10.com/A4SMcaXR        1080p

 

 

rapidgator.net

http://shrt10.com/Sqdz5                540p
http://shrt10.com/TeJYkJ               720p
http://shrt10.com/kNo5Dg            1080p

 

 

uploaded.net

http://shrt10.com/ufirju6Y              540p
http://shrt10.com/I62tcNR              720p

 

 

uploadgig.com

http://shrt10.com/vflthPH              540p
http://shrt10.com/96PyUY0            720p
http://shrt10.com/Kg4oK               1080p

 

 

Watch online

 

Server 1

 

 

 

 

Watch ROH Final Battle 2020

 

 

 

 

Server-2

 

 

 

 

watch now

 

 

Uploaded By Site DX-TV.com

 

[su_expand more_text=”Show More Info” less_text=”Close all Info” height=”50″ text_color=”#000000″ link_color=”#e25f8b” link_style=”button” more_icon=”icon: arrow-down” less_icon=”icon: arrow-up”]
Complete name : ROH.2020.12.18.Final.Battle.540p.WEB.H264 DX-TV.mp4
Format : MPEG-4
File size : 2.58 GiB
Duration : 2 h 57 min
Overall bit rate mode : Variable
Overall bit rate : 2 077 kb/s
Movie name : roh
Writing application : Lavf58.25.100
Comment : Recorded By DX-TV.COM

Watch ROH Final Battle 2020

Video
ID : 1
Format : AVC
Duration : 2 h 57 min
Bit rate mode : Variable
Bit rate : 1 881 kb/s
Maximum bit rate : 1 915 kb/s
Width : 960 pixels
Height : 540 pixels
Display aspect ratio : 16:9
Frame rate mode : Variable
Frame rate : 29.970 FPS
Standard : NTSC
Color space : YUV
Chroma subsampling : 4:2:0
Bit depth : 8 bits
Scan type : Progressive
Bits/(Pixel*Frame) : 0.121
Stream size : 2.34 GiB
Color range : Limited
Color primaries : BT.709
Transfer characteristics : BT.709
Matrix coefficients : BT.709
Codec configuration box : avc

Audio
ID : 2
Format : AAC LC
Format/Info : Advanced Audio
Codec ID : mp4a-40-2
Duration : 2 h 57 min
Bit rate mode : Constant
Bit rate : 192 kb/s
Channel(s) : 2 channels
Channel layout : L R
Sampling rate : 48.0 kHz
Frame rate : 46.875 FPS
Compression mode : Lossy
Stream size : 241 MiB (9%)
Default : Yes
Alternate group : 1

Watch ROH Final Battle 2020

Complete name : ROH.2020.12.18.Final.Battle.720p.WEB.H264 DX-TV.mp4
Format : MPEG-4
File size : 3.54 GiB
Duration : 2 h 57 min
Overall bit rate mode : Variable
Overall bit rate : 2 846 kb/s
Movie name : roh
Writing application : Lavf58.25.100
Comment : Recorded By DX-TV.COM

Video
ID : 1
Format : AVC
Duration : 2 h 57 min
Bit rate mode : Variable
Bit rate : 2 648 kb/s
Maximum bit rate : 2 703 kb/s
Width : 1 280 pixels
Height : 720 pixels
Display aspect ratio : 16:9
Frame rate mode : Variable
Frame rate : 29.940 FPS
Standard : NTSC
Color space : YUV
Chroma subsampling : 4:2:0
Bit depth : 8 bits
Scan type : Progressive
Bits/(Pixel*Frame) : 0.096
Stream size : 3.29 GiB (93%)
Color range : Limited
Color primaries : BT.709
Transfer characteristics : BT.709
Matrix coefficients : BT.709
Codec configuration box : avc

Watch ROH Final Battle 2020

Audio
ID : 2
Format : AAC LC
Codec ID : mp4a-40-2
Duration : 2 h 57 min
Bit rate mode : Constant
Bit rate : 192 kb/s
Channel(s) : 2 channels
Channel layout : L R
Sampling rate : 48.0 kHz
Frame rate : 46.875 FPS (1024 SPF)
Compression mode : Lossy
Stream size : 241 MiB (7%)
Default : Yes
Alternate group : 1

Complete name : ROH.2020.12.18.Final.Battle.1080p.WEB.H264 DX-TV.mp4
Format : MPEG-4
File size : 5.75 GiB
Duration : 2 h 57 min
Overall bit rate mode : Variable
Overall bit rate : 4 625 kb/s
Movie name : roh
Writing application : Lavf58.25.100
Comment : Recorded By DX-TV.COM

Watch ROH Final Battle 2020

Video
ID : 1
Format : AVC
Duration : 2 h 57 min
Bit rate mode : Variable
Bit rate : 4 425 kb/s
Maximum bit rate : 4 506 kb/s
Width : 1 920 pixels
Height : 1 080 pixels
Display aspect ratio : 16:9
Frame rate mode : Variable
Original frame rate : 29.970 FPS
Standard : NTSC
Color space : YUV
Chroma subsampling : 4:2:0
Bit depth : 8 bits
Scan type : Progressive
Bits/(Pixel*Frame) : 0.071
Stream size : 5.50 GiB
Color range : Limited
Color primaries : BT.709
Transfer characteristics : BT.709
Matrix coefficients : BT.709
Codec configuration box : avc

Watch ROH Final Battle 2020

Audio
ID : 2
Format : AAC LC
Format/Info : Advanced Audio
Codec ID : mp4a-40-2
Duration : 2 h 57 min
Bit rate mode : Constant
Bit rate : 192 kb/s
Channel(s) : 2 channels
Channel layout : L R
Sampling rate : 48.0 kHz
Frame rate : 46.875 FPS
Compression mode : Lossy
Stream size : 241 MiB
Default : Yes
Alternate group : 1

 

[/su_expand]

 

https://dx-tv.com/

You May Also Like

Leave a Reply

Your email address will not be published. Required fields are marked *

This site uses Akismet to reduce spam. Learn how your comment data is processed.