Watch Wrestling Free NJPW Strong 2020 12 18 English/ Japan

Watch Wrestling Free NJPW Strong 2020 12 18 English/ Japan DX-TV

Watch Wrestling Free NJPW

 Watch Wrestling Free NJPW

 

Download Links with premium High Speed   

 

 

dropapk.to

http://shrt10.com/CVGLtZ
http://shrt10.com/tvzVe

 

 

nitroflare.com

http://shrt10.com/cHmAWhr
http://shrt10.com/NPKxweVjH

 

 

rapidgator.net

http://shrt10.com/jGRr0dtP
http://shrt10.com/Mb7W1bxTe

 

 

uploaded.net

http://shrt10.com/s075sr
http://shrt10.com/1izF0wWT6

 

 

uploadgig.com

http://shrt10.com/4sKM2
http://shrt10.com/40CzY

 

 

Watch online

 

Server 1

 

 

 

 

Watch Wrestling Free NJPW

watch now

 

 

 

 

Server-2

 

 

 

 

Watch Wrestling Free NJPW

watch now

 

 

Uploaded By Site DX-TV.com

 

 

 

[su_expand more_text=”Show More Info” less_text=”Close all Info” height=”50″ text_color=”#000000″ link_color=”#e25f8b” link_style=”button” more_icon=”icon: arrow-down” less_icon=”icon: arrow-up”]
Complete name : NJPW.2020.12.18.Strong.Episode.20.ENGLISH.720p.WEB.h264-LATE.mkv
Format : Matroska
Format version : Version 4
File size : 904 MiB
Duration : 1 h 2 min
Overall bit rate : 2 032 kb/s

Video
ID : 1
Format : AVC
Duration : 1 h 2 min
Bit rate : 1 904 kb/s
Width : 1 280 pixels
Height : 720 pixels
Display aspect ratio : 16:9
Frame rate mode : Constant
Frame rate : 30.000 FPS
Color space : YUV
Chroma subsampling : 4:2:0
Bit depth : 8 bits
Scan type : Progressive
Bits/(Pixel*Frame) : 0.069
Stream size : 847 MiB (94%)
Default : Yes
Forced : No

Audio
ID : 2
Format : AAC LC
Format/Info : Advanced Audio
Codec ID : A_AAC-2
Duration : 1 h 2 min
Bit rate : 125 kb/s
Channel(s) : 2 channels
Channel layout : L R
Sampling rate : 44.1 kHz
Frame rate : 43.066 FPS
Compression mode : Lossy
Delay relative to video : -23 ms
Stream size : 55.8 MiB (6%)
Language : English
Default : Yes
Forced : No

Complete name : NJPW.2020.12.18.Strong.Episode.20.JAPANESE.720p.WEB.h264-LATE.mkv
Format : Matroska
Format version : Version 4
File size : 904 MiB
Duration : 1 h 2 min
Overall bit rate : 2 033 kb/s

Video
ID : 1
Format : AVC
Duration : 1 h 2 min
Bit rate : 1 904 kb/s
Width : 1 280 pixels
Height : 720 pixels
Display aspect ratio : 16:9
Frame rate mode : Constant
Frame rate : 30.000 FPS
Color space : YUV
Chroma subsampling : 4:2:0
Bit depth : 8 bits
Scan type : Progressive
Bits/(Pixel*Frame) : 0.069
Stream size : 847 MiB (94%)
Default : Yes
Forced : No

Audio
ID : 2
Format : AAC LC
Format/Info : Advanced Audio
Codec ID : A_AAC-2
Duration : 1 h 2 min
Bit rate : 125 kb/s
Channel(s) : 2 channels
Channel layout : L R
Sampling rate : 44.1 kHz
Frame rate : 43.066 FPS
Compression mode : Lossy
Delay relative to video : -23 ms
Stream size : 55.8 MiB (6%)
Language : English
Default : Yes
Forced : No

 

[/su_expand]

 

https://dx-tv.com/

You May Also Like

Leave a Reply

Your email address will not be published. Required fields are marked *

This site uses Akismet to reduce spam. Learn how your comment data is processed.