ROH Final Battle 2020 First Hour 1080p DX-TV

ROH Final Battle 2020 First Hour 1080p DX-TV

ROH Final Battle 2020

 ROH Final Battle 2020

 

Download Links with premium High Speed   

 

 

dropapk.to

http://shrt10.com/LriKN

 

 

nitroflare.com

http://shrt10.com/906Rj

 

 

rapidgator.net

http://shrt10.com/loYPrjWKS

 

 

uploaded.net

http://shrt10.com/CDUnFjL1G

 

 

uploadgig.com

http://shrt10.com/WGONc5VU7

 

 

ROH Final Battle 

Watch online

 

Server 1

 

 

 

 

ROH Final Battle 2020

 

 

 

 

Server-2

 

 

 

 

watch now

 

 

Uploaded By Site DX-TV.com

 

 

 

[su_expand more_text=”Show More Info” less_text=”Close all Info” height=”50″ text_color=”#000000″ link_color=”#e25f8b” link_style=”button” more_icon=”icon: arrow-down” less_icon=”icon: arrow-up”]
Complete name : ROH.Final.Battle.2020.First.Hour.FITE.1080p.WEBRip.h264-TJ.mp4
Format : MPEG-4
File size : 1.59 GiB
Duration : 1 h 0 min
Overall bit rate : 3 804 kb/s
Writing application : Lavf57.83.100

ROH Final Battle 2020

Video
ID : 1
Format : AVC
Duration : 1 h 0 min
Bit rate : 3 667 kb/s
Nominal bit rate : 4 800 kb/s
Width : 1 920 pixels
Height : 1 080 pixels
Display aspect ratio : 16:9
Frame rate mode : Constant
Frame rate : 29.970 FPS
Color space : YUV
Chroma subsampling : 4:2:0
Bit depth : 8 bits
Scan type : Progressive
Bits/(Pixel*Frame) : 0.059
Stream size : 1.54 GiB (96%)
Writing library : x264 core 160

Audio
ID : 2
Format : AAC LC
Format/Info : Advanced Audio
Codec ID : mp4a-40-2
Duration : 1 h 0 min
Bit rate mode : Constant
Bit rate : 128 kb/s
Channel(s) : 2 channels
Channel layout : L R
Sampling rate : 48.0 kHz
Frame rate : 46.875 FPS
Compression mode : Lossy
Stream size : 55.1 MiB (3%)
Default : Yes
Alternate group : 1

ROH Final Battle  

Format : AAC LC
Format/Info : Advanced Audio
Codec ID : mp4a-40-2
Duration : 1 h 0 min
Bit rate mode : Constant
Bit rate : 128 kb/s
Channel(s) : 2 channels
Channel layout : L R
Sampling rate : 48.0 kHz
Frame rate : 46.875 FPS (1024 SPF)
Compression mode : Lossy
Stream size : 55.1 MiB (3%)
Default : Yes
Alternate group : 1

ROH Final Battle 

Format : AVC
Duration : 1 h 0 min
Bit rate : 3 667 kb/s
Nominal bit rate : 4 800 kb/s
Width : 1 920 pixels
Height : 1 080 pixels
Display aspect ratio : 16:9
Frame rate mode : Constant
Frame rate : 29.970 FPS
Color space : YUV
Chroma subsampling : 4:2:0
Bit depth : 8 bits
Scan type : Progressive
Bits/(Pixel*Frame) : 0.059
Stream size : 1.54 GiB (96%)
Writing library : x264 core 160

ROH Final Battle 

[/su_expand]

 

https://dx-tv.com/

Leave a Reply

Your email address will not be published. Required fields are marked *

This site uses Akismet to reduce spam. Learn how your comment data is processed.