Watch Online iMPACT Wrestling 2020 10 13

Online iMPACT Wrestling 2020 10 13 HDTV NWCHD DX-TV

 

Watch Online iMPACT Wrestling

 

 Watch Online iMPACT Wrestling

 

Watch Online iMPACT Wrestling 2020 10 13

 

 

Watch Online iMPACT Wrestling

Complete name : iMPACT.Wrestling.2020.10.13.HDTV.x264-NWCHD.mp4
Format : MPEG-4
Format profile : Base Media
Codec ID : isom
File size : 973 MiB
Duration : 1 h 26 min
Overall bit rate : 1 580 kb/s
Writing application : Lavf58.27.103

Watch Online iMPACT Wrestling

Video
ID : 1
Format : AVC
Duration : 1 h 26 min
Bit rate : 1 400 kb/s
Width : 704 pixels
Height : 400 pixels
Display aspect ratio : 16:9
Original aspect rat : 16:9
Frame rate mode : Variable
Frame rate : 29.970 FPS
Color space : YUV
Chroma subsampling : 4:2:0
Bit depth : 8 bits
Scan type : Progressive
Bits/(Pixel*Frame) : 0.166
Stream size : 849 MiB (87%)
Color primaries : BT.709
Transfer characteristics : BT.709
Matrix coefficients : BT.709
Codec configuration box : avcC

Watch Online iMPACT Wrestling

Audio
ID : 2
Format : AAC LC
Format/Info : Advanced Audio
Codec ID : mp4a-40-2
Duration : 1 h 26 min
Bit rate mode : Constant
Bit rate : 192 kb/s
Channel(s) : 2 channels
Channel layout : L R
Sampling rate : 48.0 kHz
Frame rate : 46.875 FPS
Compression mode : Lossy
Stream size : 119 MiB (12%)
Title : Stereo
Language : English
Default : Yes
Alternate group : 1

 

 

 

Watch Online iMPACT Wrestling 2020 10 13

 

 

 

 

Watch online 

 

Server 1

 

 

 

 

watch now

 

 

 

 

Server-2

 

 

 

watch now

 

 

 

 

Server-3

 

 

 

Watch Online iMPACT Wrestling

 

 

 

 

Uploaded By Site DX-TV.com

 

 

 

Download Free Links with normal and high Speed [ more 14 hosts ]  

 

 

 

 

http://shrt10.com/6KuFJU8
http://shrt10.com/9H3dZREF
http://shrt10.com/YjaIsA4
http://shrt10.com/aAb5TF
http://shrt10.com/irLqva
http://shrt10.com/Ga6xGaN
http://shrt10.com/HLg1sRhxj
http://shrt10.com/1JedT
http://shrt10.com/QVRCuSRkv
http://shrt10.com/v4OXIsM7e
http://shrt10.com/ZRKhth
http://shrt10.com/X6HEY5j1

 

 

 

Download Links with premium High Speed   

 

 

 

dropapk.to

 

 

 

nitroflare.com

 

 

 

rapidgator.net

 

 

 

uploaded.net

 

 

 

uploadgig.com

 

 

 

 

 

dx-tv.com

 

urlfree.net

Leave a Reply

Your email address will not be published. Required fields are marked *

This site uses Akismet to reduce spam. Learn how your comment data is processed.