Download WWE Raw Free 2020 10 12 1080p

WWE Raw 2020 10 12 1080p HDTV Star DX-TV

 

Download WWE Raw Free

 

 Download WWE Raw Free
 


 

 

WWE Raw Free 2020 10 12 1080p

 

Download WWE Raw Free

Dual-Brand Women’s Battle Royal for Raw Women’s Championship Match

Is anyone ready for Asuka? Superstars from both Raw and SmackDown .

will step up to prove it this Monday in a Dual-Brand Battle Royal with .

a future Raw Women’s Championship opportunity on the line. 

Which Superstar — from which brand?! — be the last woman standing to earn a Title Match against .

The Empress? Find out this Monday on Raw, live on USA Network at 8/7 C

Download WWE Raw Free

Complete name : WWE.Monday.Night.Raw.2020.10.12.1080p.HDTV.x264-Star.mkv
Format : Matroska
Format version : Version 4
File size : 9.44 GiB
Duration : 2 h 11 min
Overall bit rate : 10.3 Mb/s
Writing library : Lavf58.29.100

 WWE Raw Free

Video
ID : 1
Format : AVC
Duration : 2 h 11 min
Bit rate : 10 000 kb/s
Width : 1 920 pixels
Height : 1 078 pixels
Display aspect ratio : 16:9
Frame rate mode : Constant
Frame rate : 29.970 FPS
Color space : YUV
Chroma sampling : 4:2:0
Bit depth : 8 bits
Scan type : Progressive
Bits/(Pixel*Frame) : 0.161
Stream size : 9.02 GiB (96%)
Forced : No
Color range : Limited
Color primaries : BT.709
Transfer characteristics : BT.709
Matrix coefficients : BT.709

WWE Raw Free 2020 10 12 1080p

Audio
ID : 2
Format : AC-3
Format/Info : Audio Coding 3
Commercial name : Dolby Digital
Codec ID : A_AC3
Duration : 2 h 11 min
Bit rate mode : Constant
Bit rate : 256 kb/s
Channel(s) : 2 channels
Channel layout : L R
Sampling rate : 48.0 kHz
Frame rate : 31.250 FPS
Compression mode : Lossy
Delay relative to video : -5 ms
Stream size : 241 MiB (2%)
Title : Stereo
Service kind : Complete Main
Default : Yes
Forced : No

 

 

 

 WWE Raw Free 2020 10 12 1080p

 

 

 

Watch online

 

 

 

Server 1

 

 

 

 

watch now

 

 

 

 

Server-2

 

 

 

watch now

 

 

 

 

Server-3

 

 

 

Download WWE Raw Free

 

 

 

 

Uploaded By Site DX-TV.com

 

 

 

 

Download Free Links with normal and high Speed [ more 14 hosts ]  

 

 

http://shrt10.com/hLWinliHK

 

 

 

Download Links with premium High Speed   

 

 

 

 

dropapk.to

http://shrt10.com/MiII9k
http://shrt10.com/QtOQCxLox
http://shrt10.com/938P3sL

 

 

nitroflare.com

 

 

 

rapidgator.net

 

 

 

uploadgig.com

 

 

 

 

 

dx-tv.com

 

urlfree.net

Leave a Reply

Your email address will not be published. Required fields are marked *

This site uses Akismet to reduce spam. Learn how your comment data is processed.