Watch iMPACT Wrestling Free Online 1080p 2020 10 13

iMPACT Wrestling Free Online 1080p 2020 10 13 DX-TV

 

iMPACT Wrestling Free Online

 

 Watch iMPACT Wrestling Free Online 1080p 2020 10 13
 


 

 

Watch iMPACT Wrestling Free Online 1080p 2020 10 13

 

Crazzy Steve def Fallah Bahh

Rhino informs Heath that he pulled some strings in order to get them both a spot in the Call Your Shot Gauntlet at Bound For Glory. If one of them wins, Heath gets his contract with IMPACT Wrestling. But if they lose, Heath must leave IMPACT once and for all. After Heath walks off, Scott D’amore lets us in on another stipulation that Rhino purposely didn’t tell Heath – Rhino’s contract is also on the line.

iMPACT Wrestling Free Online

Tenille Dashwood, Tommy Dreamer, Brian Myers, Cody Deaner & Johnny Swinger

vs Hernandez, Cousin Jake, Alisha, Rhino & Heath – 10 Person Tag Team Match

The winning team in this huge 10 person tag will face off in a five-way match next week on IMPACT! where the victor will enter the Call Your Shot Gauntlet in the coveted #20 spot at Bound For Glory. These are some unique teams – not only are The Deaners on opposite sides but rivals Tommy Dreamer and Brian Myers must also coexist. Dreamer hits the ropes but Hernandez catches him in the back with a knee, allowing Jake to gain control. Hernandez locks in a bear hug on Dreamer but the innovator of violence bites him to escape. Heath picks up the pace with a big neckbreaker to Myers. Heath connects with the Wake Up Call on Swinger to pick up the win for his team.

iMPACT Wrestling Free Online

Complete name : iMPACT.Wrestling.2020.10.13.1080p.WEB.h264-HEEL.mp4
Format : MPEG-4
Format profile : Base Media
Codec ID : isom
File size : 2.22 GiB
Duration : 1 h 26 min
Overall bit rate mode : Variable
Overall bit rate : 3 691 kb/s

iMPACT Wrestling Free Online

Video
ID : 1
Format : AVC
Duration : 1 h 26 min
Bit rate : 3 496 kb/s
Maximum bit rate : 9 177 kb/s
Width : 1 920 pixels
Height : 1 080 pixels
Display aspect ratio : 16:9
Frame rate mode : Constant
Frame rate : 29.970 FPS
Color space : YUV
Chroma subsampling : 4:2:0
Bit depth : 8 bits
Scan type : Progressive
Bits/(Pixel*Frame) : 0.056
Stream size : 2.10 GiB (95%)
Color range : Limited
Color primaries : BT.709
Transfer characteristics : BT.709
Matrix coefficients : BT.709
Codec configuration box : avcC

iMPACT Wrestling Free Online

Audio
ID : 2
Format : AAC LC
Format/Info : Advanced Audio
Codec ID : mp4a-40-2
Duration : 1 h 26 min
Bit rate mode : Variable
Bit rate : 192 kb/s
Maximum bit rate : 225 kb/s
Channel(s) : 2 channels
Channel layout : L R
Sampling rate : 48.0 kHz
Frame rate : 46.875 FPS (1024 SPF)
Compression mode : Lossy
Stream size : 117 MiB (5%)
Language : English

 

 

 

Watch iMPACT Wrestling Free Online 1080p 2020 10 13

 

 

 

 

Watch online

 

 

iMPACT Wrestling Free Online

 

 

Server 1

 

 

 

 

watch now

 

 

 

 

Server-2

 

 

 

watch now

 

 

 

 

Server-3

 

 

 

iMPACT Wrestling Free Online

 

 

 

 

Uploaded By Site DX-TV.com

 

 

 

 

Download Free Links with normal and high Speed [ more 14 hosts ]  

 

 

http://shrt10.com/Gtp6pipa
http://shrt10.com/aQSVWJg
http://shrt10.com/RZNuU
http://shrt10.com/PPIsx
http://shrt10.com/NmFcjV2
http://shrt10.com/59qk2w
http://shrt10.com/qNjEF2P
http://shrt10.com/9Hyr7
http://shrt10.com/y6vkjP

 

 

 

 

 

Download Links with premium High Speed   

 

 

dropapk.to

 

 

 

nitroflare.com

 

 

 

rapidgator.net

 

 

 

uploaded.net

 

 

 

uploadgig.com

 

 

 

 

 

dx-tv.com

 

urlfree.net

Leave a Reply

Your email address will not be published. Required fields are marked *

This site uses Akismet to reduce spam. Learn how your comment data is processed.