Watch Online iMPACT Wrestling 2020 10 06 Full Show

Online iMPACT Wrestling 2020 10 06 Full Show DX-TV

 

iMPACT Wrestling

 

 iMPACT Wrestling
 


 

 

Watch Online iMPACT Wrestling 2020 10 06 Full Show

 

Complete name : iMPACT.Wrestling.2020.10.06.WEB H264 DX-TV.mp4
Format : MPEG-4
Format profile : Base Media
Codec ID : isom
File size : 863 MiB
Duration : 1 h 26 min
Overall bit rate mode : Variable
Overall bit rate : 1 399 kb/s

Video
ID : 1
Format : AVC
Duration : 1 h 26 min
Bit rate : 1 201 kb/s
Width : 960 pixels
Height : 540 pixels
aspect ratio : 16:9
Frame rate mode : Constant
Frame rate : 29.970 FPS
Color space : YUV
Chroma sampling : 4:2:0
Bit depth : 8 bits
Scan type : Progressive
Bits/(Pixel*Frame) : 0.077
Stream size : 740 MiB (86%)
Color range : Limited
Color primaries : BT.709
Transfer characteristics : BT.709
Matrix coefficients : BT.709
Codec configuration box : avcC

Audio
ID : 2
Format : AAC LC
Format/Info : Advanced Audio
Codec ID : mp4a-40-2
Duration : 1 h 26 min
Bit rate mode : Variable
Bit rate : 192 kb/s
Maximum bit rate : 202 kb/s
Channel(s) : 2 channels
Channel layout : L R
Sampling rate : 48.0 kHz
Frame rate : 46.875 FPS (1024 SPF)
Compression mode : Lossy
Stream size : 117 MiB (14%)
Default : Yes
Alternate group : 1 

 

Watch Online iMPACT Wrestling 2020 10 06 Full Show

 

 

 

 

Watch online

 

 

 

 

 

Server 1

 

 

 

 

watch now

 

 

 

 

Server-2

 

 

 

iMPACT Wrestling

 

 

 

 

Server-3

 

 

 

watch now

 

 

 

 

Uploaded By Site DX-TV.com

 

 

 

 

Download Free Links with normal and high Speed [ more 14 hosts ]  

 

 

 

http://shrt10.com/7l83Vo8U
http://shrt10.com/Fxnw4V1P
http://shrt10.com/UHyE3
http://shrt10.com/c6Kgu
http://shrt10.com/HyJQO
http://shrt10.com/arper1
http://shrt10.com/BQ7SP8c
http://shrt10.com/tJJ2I
http://shrt10.com/3bsDQnr
http://shrt10.com/b9SfW
http://shrt10.com/MUT2SvLjY
http://shrt10.com/o0L8mS
http://shrt10.com/VXyqJu

 

 

 

 

Download Links with premium High Speed   

 

 

nitroflare.com

 

 

 

rapidgator.net

 

 

 

uploaded.net

 

 

 

uploadgig.com

 

 

 

 

 

dx-tv.com

 

urlfree.net

Leave a Reply

Your email address will not be published. Required fields are marked *

This site uses Akismet to reduce spam. Learn how your comment data is processed.