NJPW G1 CLIMAX 30 Day 11 2020 Full Show Online

Watch NJPW G1 CLIMAX 30 Day 11 2020 Full Show Online DX-TV

 

G1 CLIMAX 30 Day 11

 

G1 CLIMAX 30 Day 10
 


 

 

NJPW G1 CLIMAX 30 Day 11 2020 Full Show Online

 

 

Taichi (3-2) vs Jay White (3-2)

Singles record: 1-0 White (2019 G1)

 

Taichi and Jay White first faced off one on one in the 2019 G1, with very little prior track record to go on. To date, the two have only shared a ring three times.

but the ever vigilant Switchblade has certainly kept his eye on the Holy Emperor. Admitting that he ‘likes the way (Taichi) does things’, White has a grudging admiration for Taichi, but has similarly admitted that this won’t make a difference in the match result. 

G1 CLIMAX 30 Day 11

Nor most likely, in the match layout. White has consistently employed Gedo en route to his three wins and six points thus far, and we can likely expect Jay’s manager to come in useful again tonight; after all, an inch given to Taichi will result in a mile being taken when it comes to rules being bent.

Then again, Gedo’s interference only backfired Monday in Takamatsu, when White’s manager was physically hurled at his charge on the way to an upset for Jeff Cobb.

G1 CLIMAX 30 Day 11

Taichi was (mostly) straightforward in his approach against Tomohiro Ishii, but after a hard fought and mostly clean bout Monday, fell short.

Two days later, it could be a question of who can cheat more effectively when it comes to determining who leaves Hiroshima with two extra points. 

G1 CLIMAX 30 Day 11

Complete name : NJPW Day 11 G1 CLIMAX 30 2020 10 07 WEB H264 DX-TV.mp4
Format : MPEG-4
Format profile : Base Media
Codec ID : isom
File size : 2.01 GiB
Duration : 2 h 26 min
Overall bit rate : 1 969 kb/s
Writing application : Lavf58

G1 CLIMAX 30 Day 11

Video
ID : 1
Format : AVC
Duration : 2 h 26 min
Bit rate : 1 859 kb/s
Width : 960 pixels
Height : 540 pixels
Display aspect ratio : 16:9
Frame rate mode : Variable
Frame rate : 30.000 FPS
Color space : YUV
Chroma sampling : 4:2:0
Bit depth : 8 bits
Scan type : Progressive
Bits/(Pixel*Frame) : 0.120
Stream size : 1.90 GiB (94%)
Color range : Limited
Color primaries : BT.601 PAL
Transfer characteristics : BT.601
Matrix coefficients : BT.470  
Codec configuration box : avcC

G1 CLIMAX 30 Day 11

Audio
ID : 2
Format : AAC LC
Format/Info : Advanced Audio
Codec ID : mp4a-40-2
Duration : 2 h 26 min
Bit rate mode : Constant
Bit rate : 99.4 kb/s
Channel(s) : 2 channels
Channel layout : L R
Sampling rate : 44.1 kHz
Frame rate : 43.066 FPS
Compression mode : Lossy
Stream size : 104 MiB (5%)
Default : Yes
Alternate group : 1

 

 

 

NJPW G1 CLIMAX 30 Day 11 2020 Full Show Online

 

 

 

 

Watch online

 

 

 

 

 

Server 1

 

 

 

 

watch now

 

 

 

 

Server-2

 

 

 

watch now

 

 

 

 

Server-3

 

 

 

G1 CLIMAX 30 Day 11

 

 

 

 

Uploaded By Site DX-TV.com

 

 

 

 

Download Free Links with normal and high Speed [ more 14 hosts ]  

 

 

 

http://shrt10.com/rS8SVvWn
http://shrt10.com/7YqrWxnCx
http://shrt10.com/STQT3QXXY
http://shrt10.com/nvB3BPdU
http://shrt10.com/da4Hlj
http://shrt10.com/qD8MEE
http://shrt10.com/C5xKaNiV
http://shrt10.com/lMvI17Ckt
http://shrt10.com/1VWSCU
http://shrt10.com/ruiI20Rm0
http://shrt10.com/QsqyABJVz

 

 

 

 

Download Links with premium High Speed   

 

 

 

 

 

Keep2Share

 

 

 

nitroflare.com

 

 

 

rapidgator.net

 

 

 

uploaded.net

 

 

 

uploadgig.com

 

 

 

 

 

dx-tv.com

 

urlfree.net

Leave a Reply

Your email address will not be published. Required fields are marked *

This site uses Akismet to reduce spam. Learn how your comment data is processed.