Download iMPACT Wrestling 1080p 2020 10 06 Free

iMPACT Wrestling 1080p 2020 10 06 FreeDX-TV

 

Download iMPACT Wrestling

 

 iMPACT Wrestling
 

 

Download iMPACT Wrestling 1080p 2020 10 06 Free

This week’s edition of IMPACT! features the aftermath from VICTORY ROAD live on IMPACT Plus. We’ll catch up with Rich Swann on his road to recovery as he prepares to challenge for the IMPACT World Championship at BOUND FOR GLORY. IMPACT World Tag Team Champions The Motor City Machine Guns face off against the team of Ace Austin & Madman Fulton. Knockouts No. 1 contender Kylie Rae will speak about her upcoming showdown with Deonna Purrazzo. EC3 has promised a funeral for the TNA World Championship, which has self-proclaimed Champion Moose on edge. Tommy Dreamer and Brian Myers collide in a rematch. Plus the Knockouts tag team division is on display, as Tasha Steelz & Kiera Hogan battle Rosemary & Taya Valkyrie.

Download iMPACT Wrestling 

Complete name : iMPACT.Wrestling.2020.10.06.1080p.WEB H264 DX-TV.mp4
Format : MPEG-4
Format profile : Base Media
Codec ID : isom
File size : 2.22 GiB
Duration : 1 h 26 min
Overall bit rate mode : Variable
Overall bit rate : 3 683 kb/s

Download iMPACT Wrestling 

Video
ID : 1
Format : AVC
Duration : 1 h 26 min
Bit rate : 3 485 kb/s
Width : 1 920 pixels
Height : 1 080 pixels
Display aspect ratio : 16:9
Frame rate mode : Constant
rate : 29.970 (30000/1001) FPS
Color space : YUV
Chroma subsampling : 4:2:0
Bit depth : 8 bits
Scan type : Progressive
Bits/(Pixel*Frame) : 0.056
Stream size : 2.10 GiB (95%)
Color range : Limited
Color primaries : BT.709
Transfer characteristics : BT.709
Matrix coefficients : BT.709
Codec configuration box : avcC

Download iMPACT Wrestling 

Audio
ID : 2
Format : AAC LC
Format/Info : Advanced Audio
Codec ID : mp4a-40-2
Duration : 1 h 26 min
Bit rate mode : Variable
Bit rate : 192 kb/s
Maximum bit rate : 202 kb/s
Channel(s) : 2 channels
Channel layout : L R
Sampling rate : 48.0 kHz
Frame rate : 46.875 FPS
Compression mode : Lossy
Stream size : 117 MiB (5%)
Default : Yes
Alternate group : 1

 

 

 

Download iMPACT Wrestling 1080p 2020 10 06 Free

 

 

Watch online

 

 

 

 

 

Server 1

 

 

 

 

watch now

 

 

 

 

Server-2

 

 

 

watch now

 

 

 

 

Server-3

 

 

 

Download iMPACT Wrestling 

Download iMPACT Wrestling

 

 

 

Uploaded By Site DX-TV.com

 

Download Links with premium High Speed   

 

 

 

nitroflare.com

 

 

rapidgator.net

 

 

uploadgig.com

 

 

 

 

 

dx-tv.com

 

urlfree.net

Leave a Reply

Your email address will not be published. Required fields are marked *

This site uses Akismet to reduce spam. Learn how your comment data is processed.