Watch ONE Championship Fire and Fury 2020-01-31

Watch ONE Championship Fire and Fury 2020-01-31 DX-TV

 

 

ONE Championship

 

 

 

 

dx-tv.com

 

 

 

 

Watch ONE Championship Fire and Fury 2020-01-31

 

 

 

 

 

Complete name : ONE.Championship.Fire.and.Fury.WEB.H264-SHREDDIE.mp4
Format : MPEG-4
Format profile : Base Media
File size : 1.82 GiB
Duration : 4 h 0 min
Overall bit rate mode : Variable
Overall bit rate : 1 088 kb/s
Writing application : Lavf56.40.101

Video
ID : 1
Format : AVC
Duration : 4 h 0 min
Source duration : 4 h 0 min
Bit rate : 955 kb/s
Width : 854 pixels
Height : 480 pixels
Display aspect ratio : 16:9
Frame rate mode : Variable
Frame rate : 30.000 FPS
Minimum frame rate : 14.151 FPS
Maximum frame rate : 30.000 FPS
Color space : YUV
Chroma subsampling : 4:2:0
Bit depth : 8 bits
Scan type : Progressive
Bits/(Pixel*Frame) : 0.078
Stream size : 1.60 GiB (88%)
Source stream size : 1.60 GiB (88%)
Color range : Limited
Color primaries : BT.709
Transfer characteristics : BT.709
Matrix coefficients : BT.709
Codec configuration box : avcC

Audio
ID : 2
Format : AAC LC
Format/Info : Advanced Audio Codec Low Complexity
Codec ID : mp4a-40-2
Duration : 4 h 0 min
Bit rate mode : Variable
Bit rate : 126 kb/s
Channel(s) : 2 channels
Channel layout : L R
Sampling rate : 48.0 kHz
Frame rate : 46.875 FPS (1024 SPF)
Compression mode : Lossy
Stream size : 215 MiB (12%)
Default : Yes
Alternate group : 1

 

 

 

 

Watch online

 

 

Server 1

 

 

 

 

 

 

 

 

 

 

Server 2

 

 

 

 

 

 

 

 

 

 

Server–3

 

 

 

 

 

 

Watch ONE Championship Fire and Fury 2020-01-31

 

 

 

Uploaded By Site DX-TV.com

 

 

 

 

 

1fichier.com 

 

 

DDL.to

 

 

 

earn4files.com

 

 

filerio.in

 

 

rockfile.co

 

 

 

Download with premium account Links 

 

 

nitroflare.com

 

 

rapidgator.net

 

 

uploaded.net