ONE Championship 720p 2020-01-31 Fire vs Fury

ONE Championship 720p 2020-01-31 Fire vs Fury DX-TV

 

 

ONE Championship

 

 

 

 

dx-tv.com

 

 

 

 

ONE Championship 720p 2020-01-31 Fire vs Fury

 

 

 

 

 
Complete name : ONE.Championship.Fire.and.Fury.720p.WEB.H264-SHREDDIE.mp4
Format : MPEG-4
Format profile : Base Media
File size : 3.21 GiB
Duration : 4 h 0 min
Overall bit rate mode : Variable
Overall bit rate : 1 915 kb/s
Writing application : Lavf56.40.101

Video
ID : 1
Format : AVC
Duration : 4 h 0 min
Source duration : 4 h 0 min
Bit rate : 1 782 kb/s
Width : 1 280 pixels
Height : 720 pixels
Display aspect ratio : 16:9
Frame rate mode : Variable
Frame rate : 30.000 FPS
Minimum frame rate : 14.151 FPS
Maximum frame rate : 30.000 FPS
Color space : YUV
Chroma subsampling : 4:2:0
Bit depth : 8 bits
Scan type : Progressive
Bits/(Pixel*Frame) : 0.064
Stream size : 2.99 GiB (93%)
Source stream size : 2.99 GiB (93%)
Color range : Limited
Color primaries : BT.709
Transfer characteristics : BT.709
Matrix coefficients : BT.709
Codec configuration box : avcC

Audio
ID : 2
Format : AAC LC
Format/Info : Advanced Audio Codec Low Complexity
Codec ID : mp4a-40-2
Duration : 4 h 0 min
Bit rate mode : Variable
Bit rate : 126 kb/s
Channel(s) : 2 channels
Channel layout : L R
Sampling rate : 48.0 kHz
Frame rate : 46.875 FPS (1024 SPF)
Compression mode : Lossy
Stream size : 215 MiB (7%)
Default : Yes
Alternate group : 1

 

 

 

 

 

 

Watch online

 

 

Waiting finish converting video

 

 

Server 1

 

 

 

 

 

 

 

 

 

 

Server 2

 

 

 

 

 

 

 

 

 

 

Server–3

 

 

 

 

 

 

ONE Championship 720p 2020-01-31 Fire vs Fury

 

 

 

Uploaded By Site DX-TV.com

 

 

 

 

 

1fichier.com 

https://shrt10.com/oQPzCzEd5
https://shrt10.com/JcdkYm

 

DDL.to

 

https://shrt10.com/6KzUtbJt
https://shrt10.com/YFlXc1B9i

 

earn4files.com

https://shrt10.com/xRlPw
https://shrt10.com/iq8kkgT

 

filerio.in

 

https://shrt10.com/ZAE1a
https://shrt10.com/kKSzIW

rockfile.co

 

https://shrt10.com/wJvli
https://shrt10.com/Rb756

 

Download with premium account Links 

 

 

nitroflare.com

 

 

rapidgator.net

 

 

uploaded.net

 

 

 

 83 total views,  3 views today

%d bloggers like this: