Bar Wrestling 50 2019 12 31 Ball Drop 720p

Bar Wrestling 50 2019 12 31 Ball Drop 720p DX-TV

 

 

wwe raw

 

 

 

 

dx-tv.com

 

 

 

 

Bar Wrestling 50 2019 12 31 Ball Drop 720p

 

 

 

Complete name : Bar.Wrestling.50.2019.12.31.Ball.Drop.720p.WEB.h264-NCMP.mp4
Format : MPEG-4
Format profile : Base Media
Codec ID : isom
File size : 1.89 GiB
Duration : 2 h 0 min
Overall bit rate : 2 248 kb/s
Writing application : Lavf57.72.101

Video
ID : 1
Format : AVC
Duration : 2 h 0 min
Bit rate : 2 048 kb/s
Width : 1 280 pixels
Height : 720 pixels
Display aspect ratio : 16:9
Frame rate mode : Variable
Frame rate : 29.970 FPS
Minimum frame rate : 29.960 FPS
Maximum frame rate : 90 000.000 FPS
Color space : YUV
Chroma subsampling : 4:2:0
Bit depth : 8 bits
Scan type : Progressive
Bits/(Pixel*Frame) : 0.074
Stream size : 1.72 GiB (91%)
Codec configuration box : avcC

Audio
ID : 2
Format : AAC LC
Format/Info : Advanced Audio Codec Low Complexity
Codec ID : mp4a-40-2
Duration : 2 h 0 min
Bit rate mode : Constant
Bit rate : 192 kb/s
Channel(s) : 2 channels
Channel layout : L R
Sampling rate : 48.0 kHz
Frame rate : 46.875 FPS (1024 SPF)
Compression mode : Lossy
Stream size : 165 MiB (9%)
Default : Yes
Alternate group : 1

 

 

 

 

 

 

Watch online

 

 

Server 1

 

 

 

 

 

 

 

 

 

Server 2

 

 

 

 

 

 

 

 

 

 

Server–3

 

 

 

 

 

Bar Wrestling 50 2019 12 31 Ball Drop 720p

 

 

Uploaded By Site DX-TV.com

 

 

 

 

 

1fichier.com 

 

 

DDL.to

 

 

dl.free.fr

 

 

earn4files.com

 

 

filerio.in

 

 

 

 

Download with premium account Links 

 

 

nitroflare.com

 

 

rapidgator.net

 

 

uploaded.net