Watch NJPW Day 4 Best Of The Super Jr 27 Nov 19 Online

NJPW Day 4 Best Of The Super Jr 27 Nov 19 Online DX-TV

NJPW Best Of The Super Jr 27 Day 4

 

 NJPW Best Of The Super Jr 27 Day 4

 

Watch NJPW Day 4 Best Of The Super Jr 27 Nov 19 Online

 

 

[su_expand more_text=”Show More Info” less_text=”Close all Info” height=”30″ text_color=”#000000″ link_color=”#e25f8b” link_style=”button” more_icon=”icon: arrow-down” less_icon=”icon: arrow-up”]

 

Complete name : NJPW Day 4 Best Of The Super Jr 27 Nov 19 WEB DX-TV.COM.mp4
Format : MPEG-4
Format profile : Base Media
Codec ID : isom
File size : 1.77 GiB
Duration : 2 h 8 min
Overall bit rate : 1 960 kb/s
Writing application : Lavf58.25

NJPW Best Of The Super Jr 27 Day 4

Video
ID : 1
Format : AVC
Duration : 2 h 8 min
Bit rate : 1 850 kb/s
Width : 960 pixels
Height : 540 pixels
Display aspect ratio : 16:9
Frame rate mode : Variable
Frame rate : 30.000 FPS
Color space : YUV
Chroma subsampling : 4:2:0
Bit depth : 8 bits
Scan type : Progressive
Bits/(Pixel*Frame) : 0.119
Stream size : 1.67 GiB (94%)
Color range : Limited
Color primaries : BT.601 PAL
Transfer characteristics : BT.601
Matrix coefficients : BT.470
Codec configuration box : avc

NJPW Best Of The Super Jr 27 Day 4

Audio
ID : 2
Format : AAC LC
Info : Advanced Audio
Codec ID : mp4a-40-2
Duration : 2 h 8 min
Bit rate mode : Constant
Bit rate : 99.6 kb/s
Channel(s) : 2 channels
Channel layout : L R
Sampling rate : 44.1 kHz
Frame rate : 43.066 FPS
Compression mode : Lossy
Stream size : 91.9 MiB
Default : Yes
Alternate group : 1

NJPW Best Of The Super Jr 27 Day 4

–Many fans speculated that your time in the UK was what connected you to Ospreay Is that the case?

O-Khan: It is. We wrestled on the same card as him in the UK,

and even though we were in different locker rooms, he made a point of coming to us.

–And that was the birth of ‘THE EMPIRE’

O-Khan: Haha! And did you see what we did? More importantly, did you hear?

Those people aren’t allowed to raise their voices, but they couldn’t help themselves.

–It was such a shocking scene that some fans couldn’t stay quiet.

O-Khan: Couldn’t help themselves, the fools.

 

 

Watch NJPW Day 4 Best Of The Super Jr 27 Nov 19 Online

 

 

[/su_expand]

 

 

Watch online

 

 

Server 1

 

 

 

 

 

 

 

 

Server-2

 

 

 

 

 

 

 

NJPW Best Of The Super Jr 27 Day 4

Uploaded By Site DX-TV.com

 

Download Links with premium High Speed   

 

 

 

 

dropapk.to

 

 

 

nitroflare.com

 

 

 

rapidgator.net

 

 

 

uploaded.net

 

 

 

uploadgig.com

 

 

 

 

 

dx-tv.com

 

urlfree.net

You May Also Like

Leave a Reply

Your email address will not be published. Required fields are marked *

This site uses Akismet to reduce spam. Learn how your comment data is processed.