Download WWE NXT 18 November 2020 1080p Full Show

WWE NXT 18 November 2020 1080p HDTV Star DX-TV

WWE NXT 18 November 2020

 

 WWE NXT 18 November 2020

 

Download WWE NXT 18 November 2020 1080p Full Show

 

 

[su_expand more_text=”Show More Info” less_text=”Close all Info” height=”30″ text_color=”#000000″ link_color=”#e25f8b” link_style=”button” more_icon=”icon: arrow-down” less_icon=”icon: arrow-up”]

 

Complete name : WWE.NXT.2020.11.18.1080p.HDTV.x264-Star.mkv
Format : Matroska
Format version : Version 4
File size : 6.54 GiB
Duration : 1 h 31 min
Overall bit rate : 10.2 Mb/s

WWE NXT 18 November 2020

Video
ID : 1
Format : AVC
Duration : 1 h 31 min
Bit rate : 10 000 kb/s
Width : 1 920 pixels
Height : 1 080 pixels
Display aspect ratio : 16:9
Frame rate mode : Constant
Frame rate : 29.970 FPS
Color space : YUV
Chroma subsampling : 4:2:0
Bit depth : 8 bits
Scan type : Progressive
Bits/(Pixel*Frame) : 0.161
Stream size : 6.25 GiB (96%)
Color range : Limited
Color primaries : BT.709
Transfer characteristics : BT.709
Matrix coefficients : BT.709

WWE NXT 18 November 2020

Audio
ID : 2
Format : AC-3
Format/Info : Audio Coding 3
name : Dolby Digital
Codec ID : A_AC3
Duration : 1 h 31 min
Bit rate mode : Constant
Bit rate : 256 kb/s
Channel(s) : 2 channels
Channel layout : L R
Sampling rate : 48.0 kHz
Frame rate : 31.250 FPS
Compression mode : Lossy
Delay relative to video : -5 ms
Stream size : 167 MiB
Title : Stereo
Service kind : Complete Main
Default : Yes
Forced : No

WWE NXT 18 November 2020

NXT Women’s Champion Io Shirai def. Rhea Ripley

Rhea Ripley seized control early on, leveraging her significant strength advantage against Io Shirai in what proved to be an epic, back-and-forth battle.

Shirai regained the advantage with her quickness and shrewdness as she connected with a huge German suplex from the second rope.

The Genius of the Sky targeted Ripley’s left arm, neutralizing her power as she dissected it with a variety of maneuvers.

The challenger valiantly fought her way back, landing a super plex and trapping Shirai in the Prism Lock until the champion countered with an armbar,

further attacking Ripley’s injured arm.

Ripley evaded Shirai’s first attempt at a moon Sault, but was sent through the announce table by an unbelievable sunset flip powerbomb from Shirai,

who finally delivered the moon Sault afterward to claim victory.

 

Download WWE NXT 18 November 2020 1080p Full Show

 

 

[/su_expand]

 

 

Watch online

 

 

Server 1

 

 

 

 

 

 

WWE NXT 18 November 2020

 

Server-2

 

 

 

 

 

 

 

 

Server–3

 

 

 

 

 

 

 

 

Uploaded By Site DX-TV.com

 

WWE NXT 18 November 2020

Download Links with premium High Speed   

 

 

 

nitroflare.com

 

 

 

rapidgator.net

 

 

uploadgig.com

 

 

 

 

 

dx-tv.com

 

urlfree.net

You May Also Like

Leave a Reply

Your email address will not be published. Required fields are marked *

This site uses Akismet to reduce spam. Learn how your comment data is processed.