Watch Wrestling WWE NXT November 18 2020 720p Online

WWE NXT 18 November 2020 720p HDTV Star DX-TV

WWE NXT November 18 2020

 

 WWE NXT November 18 2020

 

Watch Wrestling WWE NXT November 18 2020 720p Online

 

 

[su_expand more_text=”Show More Info” less_text=”Close all Info” height=”30″ text_color=”#000000″ link_color=”#e25f8b” link_style=”button” more_icon=”icon: arrow-down” less_icon=”icon: arrow-up”]

 

 

Complete name : WWE.NXT.2020.11.18.720p.HDTV.x264-Star.mkv
Format : Matroska
Format version : Version 4
File size : 3.31 GiB
Duration : 1 h 31 min
Overall bit rate : 5 186 kb/s

WWE NXT November 18 2020

Video
ID : 1
Format : AVC
Duration : 1 h 31 min
Bit rate : 5 000 kb/s
Width : 1 280 pixels
Height : 720 pixels
Display aspect ratio : 16:9
Frame rate mode : Constant
Frame rate : 29.970 FPS
Color space : YUV
Chroma subsampling : 4:2:0
Bit depth : 8 bits
Scan type : Progressive
Bits/(Pixel*Frame) : 0.181
Stream size : 3.12 GiB (94%)
Color range : Limited
Color primaries : BT.709
Transfer characteristics : BT.709
Matrix coefficients : BT.709

WWE NXT November 18 2020

Audio
ID : 2
Format : AC-3
Format/Info : Audio Coding 3
Commercial name : Dolby 
Codec ID : A_AC3
Duration : 1 h 31 min
Bit rate mode : Constant
Bit rate : 192 kb/s
Channel(s) : 2 channels
Channel layout : L R
Sampling rate : 48.0 kHz
Frame rate : 31.250 FPS
Compression mode : Lossy
Delay relative to video : -5 ms
Stream size : 126 MiB (4%)
Title : Stereo
Service kind : Complete Main
Default : Yes
Forced : No

WWE NXT November 18 2020

Ember Moon & Toni Storm team up to face Dakota Kai & Raquel González

Two recent NXT returnees in Toni Storm & Ember Moon will put their skills to the test against the vicious tandem of Dakota Kai & Raquel González tonight.

Storm took on Candice LeRae on the black-and-gold brand last week, but lost in controversial fashion thanks to LeRae’s trickery.

 In her return to the ring, Moon teamed with Rhea Ripley to take down Kai & González, but Kai got the better of Moon in their one-on-one matchup two weeks ago.

Will Storm & Moon combine for instant in-ring chemistry? Or will it be Kai & González’s time to deliver punishment?

Don’t miss the showdown tonight at 8/7 C on the USA Network.

 

 

Watch Wrestling WWE NXT November 18 2020 720p Online

 

 

[/su_expand]

 

 

Watch online

 

 

Server 1

 

 

 

 

 

 

 

 

Server-2

WWE NXT November 18 2020

 

 

 

 

 

 

 

Server–3

 

 

 

 

 

 

 

 

Uploaded By Site DX-TV.com

WWE NXT November 18 2020

 

Download Links with premium High Speed   

 

 

 

 

dropapk.to

 

 

nitroflare.com

 

 

 

rapidgator.net

 

 

 

uploaded.net

 

 

 

uploadgig.com

 

 

 

 

 

dx-tv.com

 

urlfree.net

You May Also Like

Leave a Reply

Your email address will not be published. Required fields are marked *

This site uses Akismet to reduce spam. Learn how your comment data is processed.