Watch NJPW 2021 02 02 Road to the New Beginning Day 10

Watch NJPW 2021 02 02 Road to the New Beginning Day 10 English /Japan DX-TV

Watch NJPW 2021 02 02

 Watch NJPW 2021 02 02

 

Download Links with premium High Speed   

 

 

dropapk.to

http://shrt10.com/ujh7gaVf
http://shrt10.com/XY329M

 

 

nitroflare.com

http://shrt10.com/MyY0maa
http://shrt10.com/XOmvJCUCw

 

 

rapidgator.net

http://shrt10.com/04XwUJm
http://shrt10.com/lrN6ul

 

 

uploaded.net

http://shrt10.com/8Zo2Y3dc7
http://shrt10.com/mKTVG

 

 

 

Watch NJPW 2021 online

 

Server 1

 

 

 

 

Watch NJPW 2021

 

watch now

 

 

 

 

Server-2

 

 

 

 

Watch NJPW 2021

watch now

 

 

Uploaded By Site DX-TV.com

 

Complete name : NJPW.2021.02.02.Road.to.the.New.Beginning.Day.10 Japan DX-TV.mp4
Format : MPEG-4
Format profile : Base Media
Codec ID : isom
File size : 1.92 GiB
Duration : 2 h 23 min
Overall bit rate : 1 907 kb/s
Writing application : Lavf58.25.100

Watch NJPW 2021

Video
ID : 1
Format : AVC
Format/Info : Advanced Video
Duration : 2 h 23 min
Bit rate : 1 798 kb/s
Width : 960 pixels
Height : 540 pixels
Display aspect ratio : 16:9
Frame rate mode : Variable
Frame rate : 30.000 FPS
Minimum frame rate : 1.838 FPS
Maximum frame rate : 90 000.000 FPS
Color space : YUV
Chroma subsampling : 4:2:0
Bit depth : 8 bits
Scan type : Progressive
Bits/(Pixel*Frame) : 0.116
Stream size : 1.81 GiB (94%)
Color range : Limited
Color primaries : BT.601 PAL
Transfer characteristics : BT.601
Matrix coefficients : BT.470
Codec configuration box : avcC

Watch NJPW 2021

Audio
ID : 2
Format : AAC LC
Format/Info : Advanced Audio
Codec ID : mp4a-40-2
Duration : 2 h 23 min
Bit rate mode : Constant
Bit rate : 98.7 kb/s
Channel(s) : 2 channels
Channel layout : L R
Sampling rate : 44.1 kHz
Frame rate : 43.066 FPS
Compression mode : Lossy
Stream size : 102 MiB (5%)
Default : Yes
Alternate group : 1

Complete name : NJPW.2021.02.02.Road.to.the.New.Beginning.Day.10 English DX-TV.mp4
Format : MPEG-4
Format profile : Base Media
Codec ID : isom (isom/iso2/avc1/mp41)
File size : 1.90 GiB
Duration : 2 h 23 min
Overall bit rate : 1 891 kb/s
Writing application : Lavf58.25.100

Video
ID : 1
Format : AVC
Format/Info : Advanced Video
Duration : 2 h 23 min
Bit rate : 1 783 kb/s
Width : 960 pixels
Height : 540 pixels
Display aspect ratio : 16:9
Frame rate mode : Variable
Frame rate : 29.915 FPS
Minimum frame rate : 0.083 FPS
Maximum frame rate : 90 000.000 FPS
Original frame rate : 30.000 FPS
Color space : YUV
Chroma subsampling : 4:2:0
Bit depth : 8 bits
Scan type : Progressive
Bits/(Pixel*Frame) : 0.115
Stream size : 1.79 GiB (94%)
Color range : Limited
Color primaries : BT.601 PAL
Transfer characteristics : BT.601
Matrix coefficients : BT.470 System B/G
Codec configuration box : avcC

Watch NJPW 2021

Audio
ID : 2
Format : AAC LC
Format/Info : Advanced Audio
Codec ID : mp4a-40-2
Duration : 2 h 23 min
Bit rate mode : Constant
Bit rate : 98.4 kb/s
Channel(s) : 2 channels
Channel layout : L R
Sampling rate : 44.1 kHz
Frame rate : 43.066 FPS (1024 SPF)
Compression mode : Lossy
Stream size : 101 MiB (5%)
Default : Yes
Alternate group : 1

Watch NJPW 2021

 

https://dx-tv.com/

You May Also Like

Leave a Reply

Your email address will not be published. Required fields are marked *

This site uses Akismet to reduce spam. Learn how your comment data is processed.