WWE Raw Watch Online 2021 02 01 720p DX-TV

WWE Raw Watch online 2021 02 01 720p HDTV NWCHD DX-TV

WWE Raw Watch online

 WWE Raw Watch online

 

Download Links with premium High Speed   

 

 

dropapk.to

http://shrt10.com/uuoWG1h
http://shrt10.com/naQS6EI

 

 

nitroflare.com

http://shrt10.com/Bxayx3sNS
http://shrt10.com/lNWiXoC

 

 

rapidgator.net

http://shrt10.com/s2kEvq
http://shrt10.com/nRWG05h

 

 

uploaded.net

http://shrt10.com/CUE7M
http://shrt10.com/3sCw1T

 

 

 

Watch WWE Raw online

 

Server 1

 

 

 

 

WWE Raw

 

 

 

 

Server-2

 

 

 

 

watch now

 

 

Uploaded By Site DX-TV.com

 

 

Complete name : WWE.Monday.Night.Raw.2021.02.01.HDTV.x264-NWCHD.mp4
Format : MPEG-4
Format profile : Base Media
Codec ID : isom
File size : 1.43 GiB
Duration : 2 h 8 min
Overall bit rate : 1 599 kb/s
Writing application : Lavf58.27.103

WWE Raw

Video
ID : 1
Format : AVC
Format/Info : Advanced Video
Duration : 2 h 8 min
Bit rate : 1 400 kb/s
Width : 704 pixels
Height : 400 pixels
Display aspect ratio : 16:9
Frame rate mode : Variable
Frame rate : 29.970 (30000/1001) FPS
Minimum frame rate : 24.470 FPS
Maximum frame rate : 29.970 FPS
Color space : YUV
Chroma subsampling : 4:2:0
Bit depth : 8 bits
Scan type : Progressive
Bits/(Pixel*Frame) : 0.166
Stream size : 1.25 GiB (87%)
Color primaries : BT.709
Transfer characteristics : BT.709
Matrix coefficients : BT.709
Codec configuration box : avcC

WWE Raw

Audio
ID : 2
Format : AAC LC
Format/Info : Advanced Audio
Codec ID : mp4a-40-2
Duration : 2 h 8 min
Bit rate mode : Constant
Bit rate : 192 kb/s
Channel(s) : 2 channels
Channel layout : L R
Sampling rate : 48.0 kHz
Frame rate : 46.875 FPS (1024 SPF)
Compression mode : Lossy
Stream size : 176 MiB (12%)
Title : Stereo
Language : English
Default : Yes
Alternate group : 1

WWE Raw

Complete name : WWE.Monday.Night.Raw.2021.02.01.720p.HDTV.x264-NWCHD.mp4
Format : MPEG-4
Format profile : Base Media
Codec ID : isom
File size : 4.20 GiB
Duration : 2 h 8 min
Overall bit rate : 4 693 kb/s
Writing application : Lavf58.51.101

Video
ID : 1
Format : AVC
Format/Info : Advanced Video
Duration : 2 h 8 min
Bit rate : 4 500 kb/s
Width : 1 280 pixels
Height : 720 pixels
Display aspect ratio : 16:9
Frame rate mode : Variable
Frame rate : 29.970 (30000/1001) FPS
Minimum frame rate : 24.470 FPS
Maximum frame rate : 29.970 FPS
Color space : YUV
Chroma subsampling : 4:2:0
Bit depth : 8 bits
Scan type : Progressive
Bits/(Pixel*Frame) : 0.163
Stream size : 4.02 GiB (96%)
Color primaries : BT.709
Transfer characteristics : BT.709
Matrix coefficients : BT.709
Codec configuration box : avcC

WWE Raw

Audio
ID : 2
Format : AAC LC
Format/Info : Advanced Audio
Codec ID : mp4a-40-2
Duration : 2 h 8 min
Bit rate mode : Constant
Bit rate : 192 kb/s
Channel(s) : 2 channels
Channel layout : L R
Sampling rate : 48.0 kHz
Frame rate : 46.875 FPS (1024 SPF)
Compression mode : Lossy
Stream size : 176 MiB (4%)
Title : Stereo
Language : English
Default : Yes
Alternate group : 1

WWE Raw

 

https://dx-tv.com/

You May Also Like

Leave a Reply

Your email address will not be published. Required fields are marked *

This site uses Akismet to reduce spam. Learn how your comment data is processed.