ROH Wrestling 29 Jan 2021 1080p DX-TV

ROH Wrestling

ROH Wrestling 29 Jan 2021 1080p DX-TV

ROH Wrestling 29 Jan

 ROH Wrestling 29 Jan 2021

 

Download Links with premium High Speed   

 

 

dropapk.to

http://shrt10.com/UQmc2DK

 

 

nitroflare.com

http://shrt10.com/cAVIG

 

 

rapidgator.net

 

http://shrt10.com/qbHpPlJ

 

uploaded.net

http://shrt10.com/xmTmDmP

 

 

 

Watch ROH Wrestling 29 Jan online

 

Server 1

 

 

 

 

ROH Wrestling 29 Jan

 

 

 

 

Server-2

 

 

 

 

watch now

 

 

Uploaded By Site DX-TV.com

 

 

Complete name : ROH.Wrestling.Ep.489.29th.Jan.2021.1080p.WEBRip.h264-TJ.mp4
Format : MPEG-4
Format profile : Base Media
Codec ID : isom
File size : 1.31 GiB
Duration : 50 min 41 s
Overall bit rate mode : Variable
Overall bit rate : 3 698 kb/s
Writing application : Lavf58.51.101

ROH Wrestling

Video
ID : 1
Format : AVC
Format/Info : Advanced Video
Duration : 50 min 41 s
Bit rate : 3 498 kb/s
Width : 1 920 pixels
Height : 1 080 pixels
Display aspect ratio : 16:9
Frame rate mode : Constant
Frame rate : 29.970 (30000/1001) FPS
Color space : YUV
Chroma subsampling : 4:2:0
Bit depth : 8 bits
Scan type : Progressive
Bits/(Pixel*Frame) : 0.056
Stream size : 1.24 GiB (95%)
Writing library : Zencoder Video
Codec configuration box : avcC

Audio
ID : 2
Format : AAC LC
Format/Info : Advanced Audio
Codec ID : mp4a-40-2
Duration : 50 min 41 s
Bit rate mode : Variable
Bit rate : 192 kb/s
Maximum bit rate : 199 kb/s
Channel(s) : 2 channels
Channel layout : L R
Sampling rate : 48.0 kHz
Frame rate : 46.875 FPS (1024 SPF)
Compression mode : Lossy
Stream size : 69.4 MiB (5%)
Default : Yes
Alternate group : 1

ROH Wrestling

Audio
ID : 2
Format : AAC LC
Format/Info : Advanced Audio
Codec ID : mp4a-40-2
Duration : 50 min 41 s
Bit rate mode : Variable
Bit rate : 192 kb/s
Maximum bit rate : 199 kb/s
Channel(s) : 2 channels
Channel layout : L R
Sampling rate : 48.0 kHz
Frame rate : 46.875 FPS (1024 SPF)
Compression mode : Lossy
Stream size : 69.4 MiB (5%)
Default : Yes
Alternate group : 1

ROH Wrestling

Audio
ID : 2
Format : AAC LC
Format/Info : Advanced Audio
Codec ID : mp4a-40-2
Duration : 50 min 41 s
Bit rate mode : Variable
Bit rate : 192 kb/s
Maximum bit rate : 199 kb/s
Channel(s) : 2 channels
Channel layout : L R
Sampling rate : 48.0 kHz
Frame rate : 46.875 FPS (1024 SPF)
Compression mode : Lossy
Stream size : 69.4 MiB (5%)
Default : Yes
Alternate group : 1

 

https://dx-tv.com/

You May Also Like

Leave a Reply

Your email address will not be published. Required fields are marked *

This site uses Akismet to reduce spam. Learn how your comment data is processed.