Watch iMPACT Wrestling 720p 2020 10 27 Full Show Replay

iMPACT Wrestling 2020 10 27 720p HDTV NWCHD DX-TV

iMPACT Wrestling

 

 iMPACT Wrestling

 

Watch iMPACT Wrestling 720p 2020 10 27 Full Show Replay

 

 

Tommy Dreamer vs Brian Myers – Hardcore Halloween Match

Hardcore Halloween means no disqualifications, no countouts and anything goes! They don’t call Dreamer the innovator of violence for nothing as he uses everything at his disposal as a weapon.

Dreamer launches himself off the apron but Myers cuts him off with a wet floor sign. Myers turns the tide, laying in a vicious beatdown on his opponent.

Myers takes a bite of an apple and spits it in Dreamer’s face.

fights back with a series of strikes, followed by a cutter for two. Dreamer lays out a pile of thumbtacks and candy corn on the mat.

Dreamer bites The Most Professional Wrestler and sends him flying into the thumbtacks and candy corn from the top.

Myers is about to end Dreamer when Swoggle crawls out a garbage can and delivers a low blow to Myers with a pair of tongs! Dreamer hits the Death Valley Driver through a table to win.

iMPACT Wrestling

Complete name : iMPACT.WrestlingBYDX-TV.COM .2020.10.27.720p.HDTV.x264-NWCHD.mp4
Format : MPEG-4
Format profile : Base Media
Codec ID : isom
File size : 2.78 GiB
Duration : 1 h 25 min
Overall bit rate : 4 624 kb/s
Writing application : Lavf58.51

iMPACT Wrestling

Video
ID : 1
Format : AVC
Duration : 1 h 25 min
Bit rate : 4 500 kb/s
Width : 1 280 pixels
Height : 720 pixels
Display aspect ratio : 16:9
Frame rate mode : Variable
Frame rate : 29.970 FPS
Color space : YUV
Chroma subsampling : 4:2:0
Bit depth : 8 bits
Scan type : Progressive
Bits/(Pixel*Frame) : 0.163
Stream size : 2.66 GiB
Color primaries : BT.709
Transfer characteristics : BT.709
Matrix coefficients : BT.709
Codec configuration box : avcC

iMPACT Wrestling

Audio
ID : 2
Format : AAC LC
Format/Info : Advanced Audio
Codec ID : mp4a-40-2
Duration : 1 h 25 min
Bit rate mode : Constant
Bit rate : 192 kb/s
Channel(s) : 2 channels
Channel layout : L R
Sampling rate : 48.0 kHz
Frame rate : 46.875 FPS
Compression mode : Lossy
Stream size : 118 MiB (4%)
Title : Stereo
Language : English
Default : Yes
Alternate group : 1

 

Watch iMPACT Wrestling 720p 2020 10 27 Full Show Replay

 

Watch online

 

 

Server 1

 

 

 

 

iMPACT Wrestling

 

 

 

 

Server-2

 

 

 

watch now

 

 

 

Uploaded By Site DX-TV.com

 

 

Download Links with premium High Speed   

 

 

 

 

dropapk.to

 

 

 

nitroflare.com

 

 

 

rapidgator.net

 

 

 

uploaded.net

 

 

 

uploadgig.com

 

 

 

 

 

dx-tv.com

 

urlfree.net

Leave a Reply

Your email address will not be published. Required fields are marked *

This site uses Akismet to reduce spam. Learn how your comment data is processed.