Watch iMPACT Wrestling Online 2020 10 27 Full Show Replay

 iMPACT Wrestling 2020 10 27 HDTV NWCHD DX-TV

Watch iMPACT Wrestling Online

 

 Watch iMPACT Wrestling Online

 

Watch iMPACT Wrestling Online 2020 10 27 Full Show Replay

 

The first IMPACT! after Bound For Glory opens with a wild brawl in the backstage area between new World Champion Rich Swann and the man he defeated last Saturday, Eric Young. As the fight spills into the arena,

it becomes apparent that this attack was orchestrated by EY. The beatdown continues before referees, security and Executive Vice President Scott D’amore come down to him from doing further damage.

Young wants his rematch tonight but D’amore refuses to give it to him. However, Swann has different plans and agrees to give Young his rematch right here, right now!

World Champion Rich Swann (c) vs Eric Young – IMPACT World Championship

Swann is not dressed to compete as he competes in dress slacks and no shoes. Young attempts a top rope elbow drop but Swann avoids it to create gain his breath.

Young sends him flying across the ring with a big powerbomb for two. Swann connects with his signature handspring cutter, followed by the Phoenix splash to defeat EY once again.

 

Watch iMPACT Wrestling Online

Complete name : iMPACT.Wrestling.2020.10.27.720p.HDTV.x264-NWCHD.mp4
Format : MPEG-4
Format profile : Base Media
Codec ID : isom
File size : 968 MiB
Duration : 1 h 25 min
Overall bit rate : 1 573 kb/s
Writing application : Lavf58.27

Watch iMPACT Wrestling Online

Video
ID : 1
Format : AVC
Duration : 1 h 25 min
Bit rate : 1 400 kb/s
Width : 704 pixels
Height : 400 pixels
Display aspect ratio : 16:9
aspect rat : 16:9
Frame rate mode : Variable
Frame rate : 29.970 FPS
Color space : YUV
Chroma subsampling : 4:2:0
Bit depth : 8 bits
Scan type : Progressive
Bits/(Pixel*Frame) : 0.166
Stream size : 845 MiB (87%)
Color primaries : BT.709
Transfer characteristics : BT.709
Matrix coefficients : BT.709
Codec configuration box : avcC

 iMPACT Wrestling Online

Audio
ID : 2
Format : AAC LC
Format/Info : Advanced Audio
Codec ID : mp4a-40-2
Duration : 1 h 25 min
Bit rate mode : Constant
Bit rate : 192 kb/s
Channel(s) : 2 channels
Channel layout : L R
Sampling rate : 48.0 kHz
Frame rate : 46.875 FPS
Compression mode : Lossy
Stream size : 118 MiB (12%)
Title : Stereo
Language : English
Default : Yes
Alternate group : 1

 

 

 

Watch iMPACT Wrestling Online 2020 10 27 Full Show Replay

 

 

 

 

Watch online

 

 

 

 

 

Server 1

 

 

 

 

iMPACT Wrestling

 

 

 

 

Server-2

 

 

 

watch now

 

 

 

Uploaded By Site DX-TV.com

 

 

 

 

Download Free Links with normal and high Speed [ more 14 hosts ]  

 

[su_expand more_text=”Show Hosts Info” less_text=”Close all Info” height=”30″ text_color=”#000000″ link_color=”#e25f8b” link_style=”button” more_icon=”icon: arrow-down” less_icon=”icon: arrow-up”]

 

 

hexupload.net – clicknupload.co – www.multiup.org – uptobox.com – anonfiles.com – userscloud.com – 

 

 

[/su_expand]

 

 

 

http://shrt10.com/efXHDl
http://shrt10.com/qyf7PAo2g
http://shrt10.com/FMYbjGKbU
http://shrt10.com/bHwg2f
http://shrt10.com/CaH1C
http://shrt10.com/Ef3FNiBu
http://shrt10.com/9gkLw
http://shrt10.com/FiQPG4L
http://shrt10.com/QATGvTf1
http://shrt10.com/4koxL
http://shrt10.com/FgpLLNt

 

 

 

Download Links with premium High Speed   

 

 

 

 

dropapk.to

 

 

 

nitroflare.com

 

 

 

rapidgator.net

 

 

 

uploaded.net

 

 

 

uploadgig.com

 

 

 

 

 

dx-tv.com

 

urlfree.net

Leave a Reply

Your email address will not be published. Required fields are marked *

This site uses Akismet to reduce spam. Learn how your comment data is processed.