Watch iMPACT Wrestling 2021 10 07 1080p Full Show

 iMPACT Wrestling 2021 10 07 1080p Full Show Replay DX-TV

Watch iMPACT Wrestling

 Watch iMPACT Wrestling

 

 

 

Download Links with premium High Speed

Dopapk

 

 

Show Links

 

 

 

 

Nitroflare

 

 

Show Links

 

 

Rapidgator

 

 

Show Links

 

 

 

Uploaded
 

Show Links

 

 

 

 

 

Watch online

 

Server 1

 

 

 

 

iMPACT Wrestling

 

 

 

 

Server-2

 

 

 

 

watch now

 

 

 

|Server-3

 

 

 

 

watch now

 

 

Uploaded By Site DX-TV.com

 

 

Open Info Show

 

 

Complete name : iMPACT.Wrestling.2021.10.07.1080p.WEB.h264-HEEL.mp4
Format : MPEG-4
Format profile : Base Media
Codec ID : iso/avc1/mp41)
File size : 4.82 GiB
Duration : 1 h 26 min
Overall bit rate : 8 017 kb/s

Watch iMPACT Wrestling

Video
ID : 1
Format : AVC
Format/Info : Advanced Video
Duration : 1 h 26 min
Bit rate : 7 817 kb/s
Nominal bit rate : 8 500 kb/s
Width : 1 920 pixels
Height : 1 080 pixels
Display aspect ratio : 16:9
Frame rate mode : Constant
Frame rate : 29.970 (30000/1001) FPS
Color space : YUV
Chroma subsampling : 4:2:0
Bit depth : 8 bits
Scan type : Progressive
Bits/(Pixel*Frame) : 0.126
Stream size : 4.70 GiB (98%)

Watch iMPACT Wrestling

Audio
ID : 2
Format : AAC LC
Format/Info : Advanced
Codec ID : mp4a-40-2
Duration : 1 h 26 min
Bit rate mode : Constant
Bit rate : 192 kb/s
Channel(s) : 2 channels
Channel layout : L R
Sampling rate : 48.0 kHz
Frame rate : 46.875 FPS (1024 SPF)
Compression mode : Lossy
Stream size : 117 MiB (2%)
Default : Yes
Alternate group : 1

Watch iMPACT Wrestling

 

Video
ID : 1
Format : AVC
Format/Info : Advanced Video
Duration : 1 h 26 min
Bit rate : 7 817 kb/s
Nominal bit rate : 8 500 kb/s
Width : 1 920 pixels
Height : 1 080 pixels
Display aspect ratio : 16:9
Frame rate mode : Constant
Frame rate : 29.970 (30000/1001) FPS
Color space : YUV
Chroma subsampling : 4:2:0
Bit depth : 8 bits
Scan type : Progressive
Bits/(Pixel*Frame) : 0.126
Stream size : 4.70 GiB (98%)

Watch iMPACT Wrestling

Audio
ID : 2
Format : AAC LC
Format/Info : Advanced
Codec ID : mp4a-40-2
Duration : 1 h 26 min
Bit rate mode : Constant
Bit rate : 192 kb/s
Channel(s) : 2 channels
Channel layout : L R
Sampling rate : 48.0 kHz
Frame rate : 46.875 FPS (1024 SPF)
Compression mode : Lossy
Stream size : 117 MiB (2%)
Default : Yes
Alternate group : 1

https://dx-tv.com/

 

 

 

 

 

You May Also Like

Leave a Reply

Your email address will not be published. Required fields are marked *

This site uses Akismet to reduce spam. Learn how your comment data is processed.