Watch iMPACT Wrestling 2019 05 03 1080p WEB HEEL full show free mp4

 

 

 

 


 

 

dx-tv.com

 

 

 

 

Complete name : iMPACT.Wrestling.2019.05.03.1080p.WEB.h264-HEEL.mp4
Format : MPEG-4
Format profile : Base Media
Codec ID : isom (isom/avc1/mp42)
File size : 2.35 GiB
Duration : 1 h 31 min
Overall bit rate mode : Variable
Overall bit rate : 3 690 kb/s
Encoded date : UTC 2019-05-03 15:27:18
Tagged date : UTC 2019-05-03 15:27:18

Video
ID : 1
Format : AVC
Format/Info : Advanced Video Codec
Format settings, : 4 frames
Codec ID : avc1
Codec ID/Info : Advanced Video Coding
Duration : 1 h 31 min
Bit rate : 3 494 kb/s
Maximum bit rate : 9 238 kb/s
Width : 1 920 pixels
Height : 1 080 pixels
Display aspect ratio : 16:9
Frame rate mode : Constant
Frame rate : 29.970 (30000/1001) FPS
Color space : YUV
Chroma subsampling : 4:2:0
Bit depth : 8 bits
Scan type : Progressive
Bits/(Pixel*Frame) : 0.056
Stream size : 2.23 GiB (95%)
Encoded date : UTC 2019-05-03 15:04:58
Tagged date : UTC 2019-05-03 15:27:21
Color range : Limited
Color primaries : BT.709
Transfer characteristics : BT.709
Matrix coefficients : BT.709
Codec configuration box : avcC

Audio
ID : 2
Format : AAC LC
Format/Info : Advanced Audio Codec Low Complexity
Codec ID : mp4a-40-2
Duration : 1 h 31 min
Bit rate mode : Variable
Bit rate : 192 kb/s
Maximum bit rate : 217 kb/s
Channel(s) : 2 channels
Channel layout : L R
Sampling rate : 48.0 kHz
Frame rate : 46.875 FPS (1024 SPF)
Compression mode : Lossy
Stream size : 125 MiB (5%)
Encoded date : UTC 2019-05-03 14:43:27
Tagged date : UTC 2019-05-03 15:27:21

 

 

 

 

 

Watch iMPACT Wrestling 2019 05 03 1080p WEB HEEL full show free mp4

 

 

 

 

Watch online

 

 

Waiting finish converting video

 

 

Server 1

 

 

 

 

 



Uploaded By Site DX-TV.com

 

 

 

open rar file to see this password

 

 

 

 

The password : DX-TV.com

 

 

 

 

Uploaded.net + rapidgator.net + katfile.com + bitster.cz

 

 

 

 


 

 
https://shrt10.com/IiWbz
 

 
https://shrt10.com/7Y1HKQ
 

 
https://shrt10.com/HPfglE
 

 
https://shrt10.com/NSvZMm
 

 

 

 

 

Watch iMPACT Wrestling 2019 05 03 1080p WEB HEEL full show free mp4