Watch One Championship For Honor Full Event 720p WEBRip TJ full show free mp4

 

 

 

 


 

 

 

dx-tv.com

 

 

 

 

 
Complete name : One.Championship.For.Honor.Full.Event.720p.WEBRip.h264-TJ.mp4
Format : MPEG-4
Format profile : Base Media / Version 2
Codec ID : mp42 (isom/mp42)
File size : 5.13 GiB
Duration : 5 h 47 min
Overall bit rate mode : Variable
Overall bit rate : 2 112 kb/s
Encoded date : UTC 2019-05-03 19:28:43
Tagged date : UTC 2019-05-03 19:28:43
gsst : 0

Video
ID : 1
Format : AVC
Format/Info : Advanced Video Codec
Format settings, Reference : 3 frames
Codec ID : avc1
Codec ID/Info : Advanced Video Coding
Duration : 5 h 47 min
Bit rate : 1 981 kb/s
Width : 1 280 pixels
Height : 720 pixels
Display aspect ratio : 16:9
Frame rate mode : Constant
Frame rate : 25.000 FPS
Color space : YUV
Chroma subsampling : 4:2:0
Bit depth : 8 bits
Scan type : Progressive
Bits/(Pixel*Frame) : 0.086
Stream size : 4.81 GiB (94%)
Encoded date : UTC 2019-05-03 19:28:43
Tagged date : UTC 2019-05-03 19:28:43
Color range : Limited
Color primaries : BT.709
Transfer characteristics : BT.709
Matrix coefficients : BT.709
Codec configuration box : avcC

Audio
ID : 2
Format : AAC LC
Format/Info : Advanced Audio Codec Low Complexity
Codec ID : mp4a-40-2
Duration : 5 h 47 min
Bit rate mode : Variable
Bit rate : 128 kb/s
Channel(s) : 2 channels
Channel layout : L R
Sampling rate : 44.1 kHz
Frame rate : 43.066 FPS (1024 SPF)
Compression mode : Lossy
Stream size : 318 MiB (6%)
Encoded date : UTC 2019-05-03 19:28:43
Tagged date : UTC 2019-05-03 19:28:43

 

 

 

 

 


 

 

 

Watch One Championship For Honor Full Event 720p WEBRip TJ full show free mp4

 

 

 

 

Watch online

 

 

Waiting finish converting video

 

 

Server 1

 

 

 

 


 

 

 

 


 

 


 

 

 

Uploaded By Site DX-TV.com

 

 

 

open rar file to see this password

 

 

 

 

The password : DX-TV.com

 

 

 

 

Uploaded.net + rapidgator.net + katfile.com + bitster.cz

 

 

 

 


 

 

 

https://shrt10.com/s2oSM4i
 

 

 

https://shrt10.com/VEENqLCj
 

 

 

https://shrt10.com/XMWg
 

 

 

https://shrt10.com/g0qcka
 

 

 

https://shrt10.com/lcGS6R
 

 

 

https://shrt10.com/8e0Hz
 

 

 

https://shrt10.com/KmAXOJ
 

 

 

https://shrt10.com/2Cwg2ZgB

 

 

 

 

 

Watch One Championship For Honor Full Event 720p WEBRip TJ full show free mp4