Watch WWE This Week 2019 05 03 720p WEB HEEL full show free mp4

 

 

 

 


 

 

 

dx-tv.com

 

 

 

 

 

 

 

 

 

 


 

 

 

Watch WWE This Week 2019 05 03 720p WEB HEEL full show free mp4

 

 

 

 

Watch online

 

 

Waiting finish converting video

 

 

Server 1

 

 

 

 

 
Complete name : WWE.This.Week.2019.05.03.720p.WEB.h264-HEEL.mp4
Format : MPEG-4
Format profile : Base Media
Codec ID : isom (isom/iso2/avc1/mp41)
File size : 932 MiB
Duration : 29 min 2 s
Overall bit rate mode : Variable
Overall bit rate : 4 486 kb/s
Writing application : Lavf58.26.101

Video
ID : 1
Format : AVC
Format/Info : Advanced Video Codec
Format settings, Reference : 3 frames
Codec ID : avc1
Codec ID/Info : Advanced Video Coding
Duration : 29 min 2 s
Bit rate mode : Variable
Bit rate : 4 384 kb/s
Maximum bit rate : 5 500 kb/s
Width : 1 280 pixels
Height : 720 pixels
Display aspect ratio : 16:9
Frame rate mode : Constant
Frame rate : 29.970 (30000/1001) FPS
Color space : YUV
Chroma subsampling : 4:2:0
Bit depth : 8 bits
Scan type : Progressive
Bits/(Pixel*Frame) : 0.159
Stream size : 910 MiB (98%)
Codec configuration box : avcC

Audio
ID : 2
Format : AAC LC
Format/Info : Advanced Audio Codec Low Complexity
Codec ID : mp4a-40-2
Duration : 29 min 2 s
Bit rate mode : Variable
Bit rate : 93.5 kb/s
Maximum bit rate : 102 kb/s
Channel(s) : 2 channels
Channel layout : L R
Sampling rate : 48.0 kHz
Frame rate : 46.875 FPS (1024 SPF)
Compression mode : Lossy
Stream size : 19.4 MiB (2%)
Default : Yes
Alternate group : 1

Text
ID : 1-CC1
Format : EIA-608
Muxing mode : SCTE 128 / DTVCC Transport
Muxing mode, more info : Muxed in Video #1
Duration : 29 min 2 s
Bit rate mode : Constant
Stream size : 0.00 Byte (0%)
Encoded stream size : 0.00 Byte (0%)
CaptionServiceName : CC1

 

 

 

 

 


 

 


 

 

 

Uploaded By Site DX-TV.com

 

 

 

open rar file to see this password

 

 

 

 

The password : DX-TV.com

 

 

 

 

Uploaded.net + rapidgator.net + katfile.com + bitster.cz

 

 

 

 


 

 

 
https://shrt10.com/E72JzUl
 

 
https://shrt10.com/qFRSpL1t
 

 
https://shrt10.com/xV9Tp
 

 
https://shrt10.com/svSgX
 

 
https://shrt10.com/PEnru
 

 

 

 

 

 

Watch WWE This Week 2019 05 03 720p WEB HEEL full show free mp4