Watch Free SmackDown Nov 20 2020 WWE Full Show /720p

Free SmackDown Nov 20 2020 WWE Full Show Online 720p DX-TV

WWE SmackDown Nov 20 2020

 

 WWE SmackDown Nov 20 2020

 

Watch Free SmackDown Nov 20 2020 WWE Full Show /720p

 

 

[su_expand more_text=”Show More Info” less_text=”Close all Info” height=”30″ text_color=”#000000″ link_color=”#e25f8b” link_style=”button” more_icon=”icon: arrow-down” less_icon=”icon: arrow-up”]

 

Complete name : WWE.Friday.Night.SmackDown.2020.11.20.HDTV.x264-Star.mp4
Format : MPEG-4
Format profile : Base Media
Codec ID : mp42
File size : 916 MiB
Duration : 1 h 27 min
Overall bit rate : 1 470 kb/s

WWE SmackDown Nov 20 2020

Video
ID : 1
Format : AVC
Duration : 1 h 27 min
Bit rate : 1 300 kb/s
Width : 720 pixels
Height : 480 pixels
Display ratio : 16:9
Original aspect : 16:9
Frame rate mode : Constant
Frame rate : 29.970 FPS
Standard : NTSC
Color space : YUV
Chroma subsampling : 4:2:0
Bit depth : 8 bits
Scan type : Progressive
Bits/(Pixel*Frame) : 0.126
Stream size : 811 MiB
Color range : Limited
Color primaries : BT.601
Transfer characteristics : BT.709
Matrix coefficients : BT.601
Codec configuration box : av

WWE SmackDown Nov 20 2020

Audio
ID : 2
Format : AAC LC
Format/Info : Advanced Audio
Codec ID : mp4a-40-2
Duration : 1 h 27 min
Bit rate mode : Constant
Bit rate : 159 kb/s
Channel(s) : 2 channels
Channel layout : L R
Sampling rate : 48.0 kHz
Frame rate : 46.875 FPS (1024 SPF)
Compression mode : Lossy
Stream size : 99.2 MiB (11%)
Title : Stereo
Default : Yes

WWE SmackDown Nov 20 2020

Drew McIntyre and Roman Reigns make their Survivor Series Match official Contract Signing
After reclaiming the WWE Championship from Randy Orton, Drew McIntyre returned to SmackDown to take part.

in an official Contract Signing to face Universal Champion Roman Reigns at Survivor Series. 

After making his opponent wait, Reigns finally came to the ring.

In the intense exchange that followed, McIntyre advised Reigns to enjoy the last two days of peace to prepare for war.

In response, The Big Dog disrespected his opponent by calling McIntyre a secondary champion.

He said that one day, he would love Reigns for lessons he taught him and he promised McIntyre would always be his favorite number two. 

 

Watch Free SmackDown Nov 20 2020 WWE Full Show Online

 

 

[/su_expand]

 

 

Watch online

 

 

Server 1

 

 

 

 

 

WWE SmackDown Nov 20 2020

 

 

Server-2

 

 

 

 

 

 

 

 

Uploaded By Site DX-TV.com

 

 

 

 

Download Free Links with normal and high Speed [ more 14 hosts ]  

 

[su_expand more_text=”Show Hosts Info” less_text=”Close all Info” height=”30″ text_color=”#000000″ link_color=”#e25f8b” link_style=”button” more_icon=”icon: arrow-down” less_icon=”icon: arrow-up”]

WWE SmackDown Nov 20 2020

 

hexupload.net – clicknupload.co – www.multiup.org

– uptobox.com – anonfiles.com – userscloud.com –

dropapk.to alfafile.net – ddownload.com – rockfile.co

– 1fichier.com – filedown.org – katfile.com – filerio.in

 

 

[/su_expand]

 

 

http://shrt10.com/8hwZ3gGXm
http://shrt10.com/dnfxTVzW
http://shrt10.com/F8PbxtM
http://shrt10.com/2i9UrDMaQ
http://shrt10.com/uKcFo
http://shrt10.com/GCucZvE
http://shrt10.com/2gN3QDNif
http://shrt10.com/D0TJHyYZ

 

 

 

 

Download Links with premium High Speed   

 

 

 

 

dropapk.to

http://shrt10.com/mGhOYKhKG
http://shrt10.com/W1WFW43J

 

 

nitroflare.com

http://shrt10.com/C2jTTOv
http://shrt10.com/r1d8E

 

 

rapidgator.net

http://shrt10.com/ICLkPSD
http://shrt10.com/WJ1px

 

 

uploaded.net

http://shrt10.com/XlX6Nd7wN
http://shrt10.com/z5LRLDYy

 

 

uploadgig.com

http://shrt10.com/N3HYR0
http://shrt10.com/jElKy2IXE

 

 

 

 

dx-tv.com

 

urlfree.net

You May Also Like

Leave a Reply

Your email address will not be published. Required fields are marked *

This site uses Akismet to reduce spam. Learn how your comment data is processed.