NJPW World Tag League 2020 11 20 Best of the Super Jr 27

Watch JPW World Tag League 2020 11 20 Best of the Super Jr 27 DX-TV

NJPW World Tag League 2020

 

 NJPW World Tag League 2020

 

NJPW World Tag League 2020 11 20 Best of the Super Jr 27

 

 

[su_expand more_text=”Show More Info” less_text=”Close all Info” height=”30″ text_color=”#000000″ link_color=”#e25f8b” link_style=”button” more_icon=”icon: arrow-down” less_icon=”icon: arrow-up”]

 

BoSJ’s CHAOS derby saw Robbie Eagles meet SHO in the semi main event. Eagles looked for the Ron Miller Special early,

but found himself on the receiving end of a stiff knee and kick to the back in response before SHO targeted the Australian’s arm. 

Eagles did his own damage with a lowpe con giro and then set to work on SHO’s knee, an Indian Deathlock having SHO reeling.

A spear created space for SHO, but a springboard dropkick from Eagles further exacerbated the left knee damage.

Eagles followed with a 619 from the floor to SHO’s knee on the apron,

and the Asai DDT landed from ring post to ringside mats, putting SHO close to a count out loss. 

NJPW World Tag League 2020

Complete name : NJPW World Tag League 2020 11 20 Best of the Super Jr 27 WEB DX-TV.mp4
Format : MPEG-4
Format profile : Base Media
Codec ID : isom
File size : 1.87 GiB
Duration : 2 h 16 min
Overall bit rate : 1 956 kb/s
Writing application : Lavf58.25

NJPW World Tag League 2020

Video
ID : 1
Format : AVC
Duration : 2 h 16 min
Bit rate : 1 846 kb/s
Width : 960 pixels
Height : 540 pixels
Display aspect ratio : 16:9
Frame rate mode : Variable
Frame rate : 30.000 FPS
Color space : YUV
Chroma sampling : 4:2:0
Bit depth : 8 bits
Scan type : Progressive
Bits/(Pixel*Frame) : 0.119
Stream size : 1.77 GiB
Color range : Limited
Color primaries : BT.601 PAL
Transfer characteristics : BT.601
Matrix coefficients : BT.470
Codec configuration box : avc

NJPW World Tag League 2020

Audio
ID : 2
Format : AAC LC
Format/Info : Advanced
Codec ID : mp4a-40-2
Duration : 2 h 16 min
Bit rate mode : Constant
Bit rate : 99.8 kb/s
Channel(s) : 2 channels
Channel layout : L R
Sampling rate : 44.1 kHz
Frame rate : 43.066 FPS
Compression mode : Lossy
Stream size : 97.7 MiB
Default : Yes
Alternate group : 1

 

 

JPW World Tag League 2020 11 20 Best of the Super Jr 27

 

 

[/su_expand]

 

 

Watch online

 

 

Server 1

 

 

 

 

 

 

 

 

Server-2

 

 

 

 

 

 

 

 

Uploaded By Site DX-TV.com

 

 

Download Links with premium High Speed   

World Tag League 2020

 

 

 

dropapk.to

 

 

 

nitroflare.com

 

 

 

rapidgator.net

 

 

 

uploaded.net

 

 

 

uploadgig.com

 

 

 

 

 

dx-tv.com

 

urlfree.net

You May Also Like

Leave a Reply

Your email address will not be published. Required fields are marked *

This site uses Akismet to reduce spam. Learn how your comment data is processed.