Free WWE SmackDown Nov 20 2020 Full Show 1080p

Watch SmackDown Nov 20 2020 WWE Full Show Online 1080p DX-TV

WWE SmackDown Nov 20 2020

 

 WWE SmackDown Nov 20 2020

 

Free WWE SmackDown Nov 20 2020 Full Show 1080p

 

 

[su_expand more_text=”Show More Info” less_text=”Close all Info” height=”30″ text_color=”#000000″ link_color=”#e25f8b” link_style=”button” more_icon=”icon: arrow-down” less_icon=”icon: arrow-up”]

 

Complete name : WWE.Friday.Night.SmackDown.2020.11.20.1080p.HDTV.x264-Star.mkv
Format : Matroska
Format version : Version 4
File size : 6.25 GiB
Duration : 1 h 27 min
Overall bit rate : 10.3 Mb/s

WWE SmackDown Nov 20 2020

Video
ID : 1
Format : AVC
Duration : 1 h 27 min
Bit rate : 10 000 kb/s
Width : 1 920 pixels
Height : 1 080 pixels
Display aspect ratio : 16:9
Frame rate mode : Constant
Frame rate : 29.970 FPS
Color space : YUV
Chroma subsampling : 4:2:0
Bit depth : 8 bits
Scan type : Progressive
Bits/(Pixel*Frame) : 0.161
Stream size : 5.97 GiB (96%)
Color range : Limited
Color primaries : BT.709
Transfer characteristics : BT.709
Matrix coefficients : BT.709

WWE SmackDown Nov 20 2020

Audio
ID : 2
Format : AC-3
Info : Audio Coding 3
name : Dolby Digital
Codec ID : A_AC3
Duration : 1 h 27 min
Bit rate mode : Constant
Bit rate : 256 kb/s
Channel(s) : 2 channels
Channel layout : L R
Sampling rate : 48.0 kHz
Frame rate : 31.250 FPS
Compression mode : Lossy
Delay relative to video : -5 ms
Stream size : 159 MiB (2%)
Title : Stereo
Service kind : Complete Main
Default : Yes
Forced : No

WWE SmackDown Nov 20 2020

Murphy def. Seth Rollins

After Murphy betrayed Seth Rollins by helping Rey Mysterio to victory.

the self-proclaimed Savior of SmackDown was out to put an end to his former disciple for good.

Aaliyah, Rey and Dominick were all on hand to cheer Murphy on at ringside.

Nevertheless, Rollins was unhinged from start to finish as he set out to punish his former disciple and any member of the Mysterio that got in his way.

But, in the final moments, Murphy would reign supreme when he hit a pair of stunning knees and the devastating Murphy’s Law for the win.

In the aftermath, the victorious Murphy was then joined by Aalyah and the Mysterio family as they celebrated the biggest win of his career.

 

Free WWE SmackDown Nov 20 2020 Full Show 1080p

 

 

[/su_expand]

 

 

Watch online

 

 

Server 1

 

 

 

 

 

 

 

 

Server-2

WWE SmackDown Nov 20 2020

 

 

 

 

 

 

 

Uploaded By Site DX-TV.com

 

WWE SmackDown Nov 20 2020

Download Links with premium High Speed   

 

 

 

 

nitroflare.com

 

 

 

rapidgator.net

 

 

 

 

 

dx-tv.com

 

urlfree.net

You May Also Like

Leave a Reply

Your email address will not be published. Required fields are marked *

This site uses Akismet to reduce spam. Learn how your comment data is processed.