Watch Dragon Gate New Year Gate 2020/01/11 Day 1 1080p DX-TV

Watch Dragon Gate New Year Gate 2020/01/11 Day 1 1080p DX-TV

 

 

 Dragon Gate

 

 

 

 

dx-tv.com

 

 

 

 

Watch Dragon Gate New Year Gate 2020/01/11 Day 1 1080p DX-TV

 

 

 

 

 

Complete name : Dragon.Gate.2020.01.11.Open.the.New.Year.Gate.2020.Day.1.1080p WEB x264 DX-TV.mp4
Format : MPEG-4
Format profile : Base Media
File size : 3.69 GiB
Duration : 2 h 47 min
Overall bit rate : 3 166 kb/s
Writing application : Lavf58.25.100

Video
ID : 1
Format : AVC
Duration : 2 h 47 min
Bit rate : 3 000 kb/s
Width : 1 920 pixels
Height : 1 080 pixels
Display aspect ratio : 16:9
Frame rate mode : Constant
Frame rate : 30.000 FPS
Color space : YUV
Chroma subsampling : 4:2:0
Bit depth : 8 bits
Scan type : Progressive
Bits/(Pixel*Frame) : 0.048
Stream size : 3.50 GiB (95%)

Audio
ID : 2
Format : AAC LC
Format/Info : Advanced Audio Codec Low Complexity
Codec ID : mp4a-40-2
Duration : 2 h 47 min
Bit rate mode : Constant
Bit rate : 158 kb/s
Channel(s) : 2 channels
Channel layout : L R
Sampling rate : 44.1 kHz
Frame rate : 43.066 FPS (1024 SPF)
Compression mode : Lossy
Stream size : 188 MiB (5%)
Default : Yes
Alternate group : 1

 

 

 

 

Watch online

 

 

Server 1

 

 

watch now

 

 

 

 

 

Watch Dragon Gate New Year Gate 2020/01/11 Day 1 1080p DX-TV

 

 

 

Uploaded By Site DX-TV.com

 

 

 

 

 

Download VIP Members FTP server Download 1 Link and Free Links 

 

 

 

Limited Time will be removed after 90 days if you need available again pm email admin

 

[member]  

 

FTP Link Download high speed

[/member]  

1fichier.com 

 

earn4files.com

 

 

 

Download with premium account Links 

 

 

nitroflare.com

 

 

rapidgator.net

 

 

uploaded.net