NOAH N-1 Victory Final: 2021 1080p Full Show Replay

NOAH N-1 Victory Final 2021 10 03 720p/ 1080p English / Japan Full Show Replay

NOAH N-1 Victory Final

 NOAH N-1 Victory Final

 

 

 

Download Links with premium High Speed
 

 


 

Dopapk

 

 

Show Links

 

 

English

http://shrt10.com/lXppN
http://shrt10.com/2cUf7g6kZ
http://shrt10.com/d8dxbQ

Japan

http://shrt10.com/FmiN46z5M
http://shrt10.com/6CL9MM
http://shrt10.com/KLGFkv4w

 

 

 

 

 

Nitroflare

 

 

Show Links

 

 

English

http://shrt10.com/yRMG0l
http://shrt10.com/08KtAoW6
http://shrt10.com/gu2od0QrS

Japan

http://shrt10.com/lvtxq
http://shrt10.com/PKIIuVD0i
http://shrt10.com/PDICct

 

 

 

 

Rapidgator

 

 

Show Links

 

 

English

http://shrt10.com/8hYRdBn
http://shrt10.com/Ygd7zLFbz
http://shrt10.com/CSawFyU1

Japan

http://shrt10.com/Kri8npRym
http://shrt10.com/hGNAk
http://shrt10.com/56GCYo0

 

 

 

 

 

Uploaded
 

 

 

Show Links

 

 

English

http://shrt10.com/uSO7r8l
http://shrt10.com/iKH16Om

Japan

http://shrt10.com/VCu1dJZjm
http://shrt10.com/ftl16yRZa

 

 

 

 

 

 

 

Watch NOAH N-1 Victory Final online

 

Server 1

 

 

 
English

Japan

NOAH N-1 Victory Final

 

watch now

 

 

 

 

Server-2

 

 

 

 

NOAH N-1 Victory Final

 

watch now

 

 

 

|Server-3

 

 

 

 

NOAH N-1 Victory Final

 

watch now

 

 

Uploaded By Site DX-TV.com

 

 

Open Info Show

 

 

Complete name : NOAH N-1 Victory Final 2021 10 03 English 480p WEB By DX-TV.com.mp4
Format : MPEG-4
Format profile : Base Media
File size : 1.68 GiB
Duration : 2 h 56 min
Overall bit rate mode : Variable
Overall bit rate : 1 361 kb/s

NOAH N-1 Victory Final

Video
ID : 1
Format : AVC
Duration : 2 h 56 min
Bit rate : 1 229 kb/s
Width : 864 pixels
Height : 488 pixels
Display aspect ratio : 16:9
Frame rate mode : Variable
Frame rate : 29.970 (29970/1000) FPS
Minimum frame rate : 29.412 FPS
Maximum frame rate : 90 000.000 FPS
Color space : YUV
Chroma subsampling : 4:2:0
Bit depth : 8 bits
Scan type : Progressive
Bits/(Pixel*Frame) : 0.097
Stream size : 1.52 GiB (90%)
Codec configuration box : avcC

NOAH N-1 Victory Final

Audio
ID : 2
Format : AAC LC
Codec ID : mp4a-40-2
Duration : 2 h 56 min
Bit rate mode : Variable
Bit rate : 123 kb/s
Maximum bit rate : 126 kb/s
Channel(s) : 2 channels
Channel layout : L R
Sampling rate : 48.0 kHz
Frame rate : 46.875 FPS (1024 SPF)
Compression mode : Lossy
Stream size : 155 MiB (9%)
Default : Yes
Alternate group : 1

Complete name : NOAH N-1 Victory Final 2021 10 03 English 720p WEB By DX-TV.com.mp4
Format : MPEG-4
Format profile : Base Media
Codec ID : is/mp41)
File size : 3.75 GiB
Duration : 2 h 56 min
Overall bit rate mode : Variable
Overall bit rate : 3 038 kb/s

Video
ID : 1
Format : AVC
Duration : 2 h 56 min
Bit rate : 2 768 kb/s
Width : 1 280 pixels
Height : 720 pixels
Display aspect ratio : 16:9
Frame rate mode : Variable
Frame rate : 30.000 FPS
Minimum frame rate : 29.412 FPS
Maximum frame rate : 90 000.000 FPS
Original frame rate : 29.970 (29970/1000) FPS
Color space : YUV
Chroma subsampling : 4:2:0
Bit depth : 8 bits
Scan type : Progressive
Bits/(Pixel*Frame) : 0.100
Stream size : 3.41 GiB (91%)
Codec configuration box : avcC

NOAH N-1 Victory Final

Audio
ID : 2
Format : AAC LC
Codec ID : mp4a-40-2
Duration : 2 h 56 min
Bit rate mode : Variable
Bit rate : 265 kb/s
Channel(s) : 2 channels
Channel layout : L R
Sampling rate : 48.0 kHz
Frame rate : 46.875 FPS (1024 SPF)
Compression mode : Lossy
Stream size : 331 MiB (9%)
Default : Yes
Alternate group : 1

Complete name : NOAH N-1 Victory Final 2021 10 03 English 1080p WEB By DX-TV.com .mp4
Format : MPEG-4
Format profile : Base Media
Codec ID : isvc1/mp41)
File size : 6.38 GiB
Duration : 2 h 56 min
Overall bit rate mode : Variable
Overall bit rate : 5 170 kb/s

Video
ID : 1
Format : AVC
Format/Info : Video Codec
Duration : 2 h 56 min
Source duration : 2 h 56 min
Bit rate mode : Variable
Bit rate : 5 053 kb/s
Maximum bit rate : 18.0 Mb/s
Width : 1 920 pixels
Height : 1 080 pixels
Display aspect ratio : 16:9
Frame rate mode : Variable
Frame rate : 29.970 (30000/1001) FPS
Minimum frame rate : 29.412 FPS
Maximum frame rate : 30.303 FPS
Color space : YUV
Chroma subsampling : 4:2:0
Bit depth : 8 bits
Scan type : Progressive
Bits/(Pixel*Frame) : 0.081
Stream size : 6.24 GiB (98%)
Source stream size : 6.24 GiB (98%)
Color range : Limited
Color primaries : BT.709
Transfer characteristics : BT.709
Matrix coefficients : BT.709
Codec configuration box : avcC

NOAH N-1 Victory Final

Audio
ID : 2
Format : AAC LC
Format/Info : Advan mplexity
Codec ID : mp4a-40-2
Duration : 2 h 56 min
Bit rate mode : Constant
Bit rate : 110 kb/s
Channel(s) : 2 channels
Channel layout : L R
Sampling rate : 48.0 kHz
Frame rate : 46.875 FPS (1024 SPF)
Compression mode : Lossy
Stream size : 139 MiB (2%)
Default : Yes
Alternate group : 1

Complete name : NOAH N-1 Victory Final 2021 10 03 Japan 480p WEB By DX-TV.com.mp4
Format : MPEG-4
Format profile : Base Media
File size : 1.81 GiB
Duration : 3 h 10 min
Overall bit rate mode : Variable
Overall bit rate : 1 360 kb/s

Video
ID : 1
Format : AVC
Duration : 3 h 10 min
Bit rate : 1 228 kb/s
Width : 864 pixels
Height : 488 pixels
Display aspect ratio : 16:9
Frame rate mode : Variable
Frame rate : 29.970 (29970/1000) FPS
Minimum frame rate : 28.571 FPS
Maximum frame rate : 90 000.000 FPS
Color space : YUV
Chroma subsampling : 4:2:0
Bit depth : 8 bits
Scan type : Progressive
Bits/(Pixel*Frame) : 0.097
Stream size : 1.63 GiB (90%)
Codec configuration box : avc

NOAH N-1 Victory Final

Audio
ID : 2
Format : AAC LC
Codec ID : mp4a-40-2
Duration : 3 h 10 min
Bit rate mode : Variable
Bit rate : 123 kb/s
Maximum bit rate : 126 kb/s
Channel(s) : 2 channels
Channel layout : L R
Sampling rate : 48.0 kHz
Frame rate : 46.875 FPS (1024 SPF)
Compression mode : Lossy
Stream size : 168 MiB (9%)
Default : Yes
Alternate group : 1

Complete name : NOAH N-1 Victory Final 2021 10 03 Japan 720p WEB By DX-TV.com.mp4
Format : MPEG-4
Format profile : Base Media
Codec ID : iso1/mp41)
File size : 4.04 GiB
Duration : 3 h 10 min
Overall bit rate mode : Variable
Overall bit rate : 3 036 kb/s

Video
ID : 1
Format : AVC
Duration : 3 h 10 min
Bit rate : 2 762 kb/s
Width : 1 280 pixels
Height : 720 pixels
Display aspect ratio : 16:9
Frame rate mode : Variable
Frame rate : 29.970 (30000/1001) FPS
Minimum frame rate : 28.571 FPS
Maximum frame rate : 31.250 FPS
Color space : YUV
Chroma subsampling : 4:2:0
Bit depth : 8 bits
Scan type : Progressive
Bits/(Pixel*Frame) : 0.100
Stream size : 3.68 GiB (91%)
Codec configuration box : avc

NOAH N-1 Victory Final

Audio
ID : 2
Format : AAC LC
Codec ID : mp4a-40-2
Duration : 3 h 10 min
Bit rate mode : Variable
Bit rate : 265 kb/s
Channel(s) : 2 channels
Channel layout : L R
Sampling rate : 48.0 kHz
Frame rate : 46.875 FPS (1024 SPF)
Compression mode : Lossy
Stream size : 357 MiB (9%)
Default : Yes
Alternate group : 1

Complete name : NOAH N-1 Victory Final 2021 10 03 Japan 1080p WEB By DX-TV.com .mp4
Format : MPEG-4
Format profile : Base Media
File size : 5.55 GiB
Duration : 3 h 10 min
Overall bit rate mode : Variable
Overall bit rate : 4 167 kb/s

Video
ID : 1
Format : AVC
Duration : 3 h 10 min
Source duration : 3 h 10 min
Bit rate mode : Variable
Bit rate : 4 034 kb/s
Maximum bit rate : 6 000 kb/s
Width : 1 920 pixels
Height : 1 080 pixels
Display aspect ratio : 16:9
Frame rate mode : Variable
Frame rate : 29.970 (30000/1001) FPS
Minimum frame rate : 29.412 FPS
Maximum frame rate : 30.303 FPS
Standard : NTSC
Color space : YUV
Chroma subsampling : 4:2:0
Bit depth : 8 bits
Scan type : Progressive
Bits/(Pixel*Frame) : 0.065
Stream size : 5.37 GiB (97%)
Source stream size : 5.37 GiB (97%)
Tagged date : UTC 2021-10-03 05:14:24
Color range : Limited
Color primaries : BT.709
Transfer characteristics : BT.709
Matrix coefficients : BT.709
Codec configuration box : avcC

NOAH N-1 Victory Final

Audio
ID : 2
Format : AAC LC
Codec ID : mp4a-40-2
Duration : 3 h 10 min
Bit rate mode : Constant
Bit rate : 128 kb/s
Channel(s) : 2 channels
Channel layout : L R
Sampling rate : 48.0 kHz
Frame rate : 46.875 FPS (1024 SPF)
Compression mode : Lossy
Stream size : 175 MiB (3%)
Default : Yes
Alternate group : 1

 

 

 

 

https://dx-tv.com/

 

 

 

 

 

Leave a Reply

Your email address will not be published. Required fields are marked *

This site uses Akismet to reduce spam. Learn how your comment data is processed.