Watch WWE SmackDown 2020 01 10 1080p HDTV Star

Watch WWE SmackDown 2020 01 10 1080p HDTV Star DX-TV

 

 

wwe SmackDown

 

 

 

 

dx-tv.com

 

 

 

 

Watch WWE SmackDown 2020 01 10 1080p HDTV Star

 

 

 

 

 

Complete name : WWE.SmackDown.2020.01.10.1080p.HDTV.x264-Star.mkv
Format : Matroska
Format version : Version 4
File size : 6.64 GiB
Duration : 1 h 27 min
Overall bit rate : 10.8 Mb/s
Encoded date : UTC 2020-01-11 05:14:17
Writing application : HandBrake 1.3.0 2019110900
Writing library : Lavf58.29.100
ErrorDetectionType : Per level 1

Video
ID : 1
Format : AVC
Codec ID : V_MPEG4/ISO/AVC
Duration : 1 h 27 min
Bit rate : 10.5 Mb/s
Width : 1 920 pixels
Height : 1 080 pixels
Display aspect ratio : 16:9
Frame rate mode : Constant
Frame rate : 25.000 FPS
Color space : YUV
Chroma subsampling : 4:2:0
Bit depth : 8 bits
Scan type : Progressive
Bits/(Pixel*Frame) : 0.203
Stream size : 6.35 GiB (96%)
Forced : No
Color range : Limited
Color primaries : BT.709
Transfer characteristics : BT.709
Matrix coefficients : BT.709

Audio
ID : 2
Format : AC-3
Codec ID : A_AC3
Duration : 1 h 27 min
Bit rate mode : Constant
Bit rate : 256 kb/s
Channel(s) : 2 channels
Channel layout : L R
Sampling rate : 48.0 kHz
Frame rate : 31.250 FPS (1536 SPF)
Compression mode : Lossy
Delay relative to video : -5 ms
Stream size : 161 MiB (2%)
Title : Stereo
Default : Yes
Forced : No

 

 

 

 

 

 

Watch online

 

 

Server 1

 

 

 

watch now

 

 

 

 

 

 

Watch WWE SmackDown 2020 01 10 1080p HDTV Star

 

 

 

Uploaded By Site DX-TV.com

 

 

 

 

 

Download VIP Members FTP server Download 1 Link and Free Links 

 

 

 

Limited Time will be removed after 90 days if you need available again pm email admin

 

[member]

FTP Link Download high speed

[/member]

1fichier.com 

 

 

earn4files.com

 

 

 

 

Download with premium account Links 

 

 

nitroflare.com

 

 

rapidgator.net

 

 

 

 

 

You May Also Like