Watch Defiant Loaded 22 2019 1080p free full show online

 

 

 

 


 

 

dx-tv.com

 

 

 

 

Complete name : Defiant Loaded 22.mp4
Format : MPEG-4
Format profile : Base Media
Codec ID : isom (isom/iso2/avc1/mp41)
File size : 2.61 GiB
Duration : 1 h 6 min
Overall bit rate : 5 599 kb/s
Performer : Defiant Wrestling
Recorded date : 2019
Writing application : Lavf58.18.104

Video
ID : 1
Format : AVC
Format/Info : Advanced Video Codec
Format settings, Reference : 3 frames
Codec ID : avc1
Codec ID/Info : Advanced Video Coding
Duration : 1 h 6 min
Bit rate : 5 462 kb/s
Width : 1 920 pixels
Height : 1 080 pixels
Display aspect ratio : 16:9
Frame rate mode : Constant
Frame rate : 50.000 FPS
Color space : YUV
Chroma subsampling : 4:2:0
Bit depth : 8 bits
Scan type : Progressive
Bits/(Pixel*Frame) : 0.053
Stream size : 2.55 GiB (98%)
Color range : Limited
Color primaries : BT.709
Transfer characteristics : BT.709
Matrix coefficients : BT.709
Codec configuration box : avcC

Audio
ID : 2
Format : AAC LC
Format/Info : Advanced Audio Codec Low Complexity
Codec ID : mp4a-40-2
Duration : 1 h 6 min
Bit rate mode : Constant
Bit rate : 128 kb/s
Channel(s) : 2 channels
Channel layout : L R
Sampling rate : 44.1 kHz
Frame rate : 43.066 FPS (1024 SPF)
Compression mode : Lossy
Stream size : 61.1 MiB (2%)
Language : English
Default : Yes
Alternate group : 1

 

 

 

 

 


 

 

Watch Defiant Loaded 22 2019 1080p free full show online

 

 

 

 

Watch online

 

 

Waiting finish converting video

 

 

Server 1

 

 

 

 


 

 

 


 


 

 

Uploaded By Site DX-TV.com

 

 

 

open rar file to see this password

 

 

 

 

The password : DX-TV.com

 

 

 

 

Uploaded.net + rapidgator.net + katfile.com + bitster.cz

 

 

 

 


 

 
https://shrt10.com/RGw7vL

 

 

https://shrt10.com/JEoMmuD

 

 

https://shrt10.com/7VdE

 

 

https://shrt10.com/N7I3fB6q
 

 

 

 

 

 

Watch Defiant Loaded 22 2019 1080p free full show online