Watch MLW Fusion Episode 56 2019 1080p free full show online

 

 

 

 


 

 

dx-tv.com

 

 

 

 

 
Complete name : MLW Fusion Episode 56.mp4
Format : MPEG-4
Format profile : Base Media
Codec ID : isom (isom/iso2/avc1/mp41)
File size : 1.54 GiB
Duration : 49 min 46 s
Overall bit rate : 4 430 kb/s

Video
ID : 1
Format : AVC
Format/Info : Advanced Video Codec
Format settings, Reference : 3 frames
Codec ID : avc1
Codec ID/Info : Advanced Video Coding
Duration : 49 min 46 s
Bit rate : 4 295 kb/s
Width : 1 920 pixels
Height : 1 080 pixels
Display aspect ratio : 16:9
Frame rate mode : Constant
Frame rate : 30.000 FPS
Color space : YUV
Chroma subsampling : 4:2:0
Bit depth : 8 bits
Scan type : Progressive
Bits/(Pixel*Frame) : 0.069
Stream size : 1.49 GiB (97%)
Color range : Limited
Color primaries : BT.709
Transfer characteristics : BT.709
Matrix coefficients : BT.709
Codec configuration box : avcC

Audio
ID : 2
Format : AAC LC
Format/Info : Advanced Audio Codec Low Complexity
Codec ID : mp4a-40-2
Duration : 49 min 46 s
Bit rate mode : Constant
Bit rate : 128 kb/s
Channel(s) : 2 channels
Channel layout : L R
Sampling rate : 44.1 kHz
Frame rate : 43.066 FPS (1024 SPF)
Compression mode : Lossy
Stream size : 45.6 MiB (3%)
Language : English
Default : Yes
Alternate group : 1

 

 

 

 

 


 

 

Watch MLW Fusion Episode 56 2019 1080p free full show online

 

 

 

 

Watch online

 

 

Waiting finish converting video

 

 

Server 1

 

 

 

 


 

 

 


 


 

 

Uploaded By Site DX-TV.com

 

 

 

open rar file to see this password

 

 

 

 

The password : DX-TV.com

 

 

 

 

Uploaded.net + rapidgator.net + katfile.com + bitster.cz

 

 

 

 


 

 
https://shrt10.com/wIgL
 

 

https://shrt10.com/Ns1Y
 

 

https://shrt10.com/FcCC
 

 

https://shrt10.com/IBGVTts
 

 

 

 

 

 

Watch MLW Fusion Episode 56 2019 1080p free full show online