Watch UFC 237 Countdown 720p free full show online mp4

Watch UFC 237 Countdown 720p free full show online mp4

 

 

 

 


 

 

dx-tv.com

 

 

 

 

Complete name : UFC.237.Countdown.720p.WEBRip.h264-TJ.mp4
Format : MPEG-4
Format profile : Base Media
Codec ID : isom (isom/iso2/avc1/mp41)
File size : 1.47 GiB
Duration : 47 min 35 s
Overall bit rate : 4 423 kb/s
Writing application : Lavf57.83.100

Video
ID : 1
Format : AVC
Format/Info : Advanced Video Codec
Format settings, Reference : 3 frames
Codec ID : avc1
Codec ID/Info : Advanced Video Coding
Duration : 47 min 35 s
Bit rate : 4 284 kb/s
Width : 1 280 pixels
Height : 720 pixels
Display aspect ratio : 16:9
Frame rate mode : Constant
Frame rate : 29.970 (30000/1001) FPS
Original frame rate : 29.970 (29970/1000) FPS
Color space : YUV
Chroma subsampling : 4:2:0
Bit depth : 8 bits
Scan type : Progressive
Bits/(Pixel*Frame) : 0.155
Stream size : 1.42 GiB (97%)
Codec configuration box : avcC

Audio
ID : 2
Format : AAC LC
Format/Info : Advanced Audio Codec Low Complexity
Codec ID : mp4a-40-2
Duration : 47 min 35 s
Bit rate mode : Constant
Bit rate : 132 kb/s
Channel(s) : 2 channels
Channel layout : L R
Sampling rate : 44.1 kHz
Frame rate : 43.066 FPS (1024 SPF)
Compression mode : Lossy
Stream size : 44.5 MiB (3%)
Default : Yes
Alternate group : 1

 

 

 

 

 


 

 

Watch UFC 237 Countdown 720p free full show online mp4

 

 

 

 

Watch online

 

 

Waiting finish converting video

 

 

Server 1

 

 

 

 


 

 

 


 


 

 

Uploaded By Site DX-TV.com

 

 

 

open rar file to see this password

 

 

 

 

The password : DX-TV.com

 

 

 

 

Uploaded.net + rapidgator.net + katfile.com + bitster.cz

 

 

 

 


 

https://shrt10.com/kjU2nH1

 

 
https://shrt10.com/vbJ3mNz

 

 
https://shrt10.com/DIna

 

 
https://shrt10.com/iYnfBr

 

 
https://shrt10.com/n8IKj4P
 

 

 

 

 

 

Watch UFC 237 Countdown 720p free full show online mp4

Leave a Reply

Your email address will not be published. Required fields are marked *