Watch CMLL 2019 11 22 Viernes

Watch CMLL 2019 11 22 Viernes Espectacular 720p DX-TV

 

 

WWE RAW

 

 

 

 

dx-tv.com

 

 

 

 

Watch CMLL 2019 11 22 Viernes

 

 

 

 

 

CMLL.2019.11.22.Viernes.Espectacular.720p.WEB.x264-0M1077.mp4
Format : MPEG-4
File size : 2.34 GiB
Duration : 2 h 19 min
Overall bit rate mode : Variable
Overall bit rate : 2 396 kb/s

Video
ID : 1
Format : AVC
Format/Info : Advanced Video Codec
Codec ID/Info : Advanced Video Coding
Duration : 2 h 19 min
Bit rate : 2 265 kb/s
Width : 1 280 pixels
Height : 720 pixels
Display aspect ratio : 16:9
Frame rate mode : Variable
Frame rate : 29.970 FPS
Minimum frame rate : 29.615 FPS
Maximum frame rate : 30.550 FPS
Color space : YUV
Chroma subsampling : 4:2:0
Bit depth : 8 bits
Scan type : Progressive
Bits/(Pixel*Frame) : 0.082
Stream size : 2.21 GiB (95%)
Color range : Limited
Color primaries : BT.709
Transfer characteristics : BT.709
Matrix coefficients : BT.709
Codec configuration box : avcC

Audio
ID : 2
Format : AAC LC
Format/Info : Advanced Audio Codec Low Complexity
Codec ID : mp4a-40-2
Duration : 2 h 19 min
Bit rate mode : Variable
Bit rate : 128 kb/s
Channel(s) : 2 channels
Channel layout : L R
Sampling rate : 44.1 kHz
Frame rate : 43.066 FPS (1024 SPF)
Compression mode : Lossy
Stream size : 128 MiB (5%)

 

 

 

 

 

 

Watch online

 

 

Waiting finish converting video

 

 

Server 1

 

 

 

 

 

 

 

 

 

 

 

 

 

 

Uploaded By Site DX-TV.com

 

 

 

 

 

Watch CMLL 2019 11 22 Viernes

 

 

 

 

 

 

Download with high speed Premium account

 

 

 

 

nitroflare.com

 

 

 

rapidgator.net

 

 

uploaded.net

 

 

 

 

 

 

 

 

 

 

Categories

Earn money $25 as per 1000

103