Watch DDT 2019 11 29 D King Grand Prix 2020 DX-TV

Watch DDT 2019 11 29 D King Grand Prix 2020 in Yokohama DX-TV

 

 

DDT 2019

 

 

 

 

dx-tv.com

 

 

 

 

Watch DDT 2019 11 29 D King Grand Prix 2020 DX-TV

 

 

 

 

 

Complete name : DDT D King GRAND PRIX 2020 in YOKOHAMA 2DAYS_2019.11.29.mp4
Format : MPEG-4
Format profile : Base Media
Codec ID : isom (mp41/avc1)
File size : 1.22 GiB
Duration : 1 h 32 min
Overall bit rate mode : Variable
Overall bit rate : 1 878 kb/s

Video
ID : 2
Format : AVC
Format/Info : Advanced Video Codec
Codec ID/Info : Advanced Video Coding
Duration : 1 h 32 min
Bit rate : 1 771 kb/s
Width : 960 pixels
Height : 540 pixels
Display aspect ratio : 16:9
Frame rate mode : Variable
Frame rate : 30.000 FPS
Minimum frame rate : 29.412 FPS
Maximum frame rate : 30.303 FPS
Color space : YUV
Chroma subsampling : 4:2:0
Bit depth : 8 bits
Scan type : Progressive
Bits/(Pixel*Frame) : 0.114
Stream size : 1.15 GiB (94%)
Language : English
Color range : Limited
Color primaries : BT.601 PAL
Transfer characteristics : BT.601
Codec configuration box : avcC

Audio
ID : 1
Format : AAC LC
Codec ID : mp4a-40-2
Duration : 1 h 32 min
Bit rate mode : Variable
Bit rate : 96.0 kb/s
Maximum bit rate : 156 kb/s
Channel(s) : 2 channels
Channel layout : L R
Sampling rate : 44.1 kHz
Frame rate : 43.066 FPS (1024 SPF)
Compression mode : Lossy
Stream size : 63.6 MiB (5%)
Language : japan

 

 

 

 

 

 

Watch online

 

 

 

Server 1

 

 

 

 

 

 

 

 

 

 

 

 

 

Server 2

 

 

 

 

 

 

 

 

 

 

 

 

 

 

 

Uploaded By Site DX-TV.com

 

 

 

 

 

Watch DDT 2019 11 29 D King Grand Prix 2020 DX-TV

 

 

 

 

 

 

Recommended For Free

 

 

 

 

earn4files.com

 

 

 

 

Download with high speed Premium account

 

 

 

 

nitroflare.com

 

 

 

rapidgator.net

 

 

 

uploaded.net

 

 

 

 

 

 

 

 

 

 

Categories

Earn money $25 as per 1000

103