Watch WWE Day Of Crown Jewel 2019 720p

Watch WWE Day Of Crown Jewel 2019 720p DX-TV

 

 

 

WWE SmackDown

 

 

 

 

dx-tv.com

 

 

 

 

Watch WWE Day Of Crown Jewel 2019 720p

 

 

 

 

 

Complete name : WWE.Day.Of.Crown.Jewel.2019.720p.Hi.WEB.h264-HEEL.mp4
Format : MPEG-4
Format profile : Base Media
File size : 530 MiB
Duration : 20 min 56 s
Overall bit rate mode : Variable
Overall bit rate : 3 539 kb/s
Writing application : Lavf58.32.104

Video
ID : 1
Format : AVC
Format/Info : Advanced Video Codec
Codec ID : avc1
Codec ID/Info : Advanced Video Coding
Duration : 20 min 56 s
Bit rate : 3 372 kb/s
Width : 1 280 pixels
Height : 720 pixels
Display aspect ratio : 16:9
Frame rate mode : Constant
Frame rate : 30.000 FPS
Color space : YUV
Chroma subsampling : 4:2:0
Bit depth : 8 bits
Scan type : Progressive
Bits/(Pixel*Frame) : 0.122
Stream size : 500 MiB (94%)

Audio
ID : 2
Format : AAC LC
Format/Info : Advanced Audio Codec Low Complexity
Codec ID : mp4a-40-2
Duration : 20 min 56 s
Bit rate mode : Variable
Bit rate : 192 kb/s
Maximum bit rate : 198 kb/s
Channel(s) : 2 channels
Channel layout : L R
Sampling rate : 48.0 kHz
Frame rate : 46.875 FPS (1024 SPF)
Compression mode : Lossy
Stream size : 28.8 MiB (5%)
Default : Yes
Alternate group : 1

 

 

 

 

 

 

Watch online

 

 

Waiting finish converting video

 

 

Server 1

 

 

 

 

 

 

 

 

 

 

 

 

 

Server 2

 

 

 

 

 

 

 

 

 

 

Server–3

 

 

 

 

 

 

 

 

 

 

Server 4

 

 

 

 

 

 

 

 

 

 

Uploaded By Site DX-TV.com

 

 

 

 

 

Watch WWE Day Of Crown Jewel 2019 720p

 

 

 

 

 

 

Recommended For Free

 

 

 

 

1fichier.com

 

 

dl.free.fr

 

 

katfile.com

 

 

 

 

Download with high speed Premium account

 

 

 

 

nitroflare.com

 

 

 

rapidgator.net

 

 

 

 

uploaded.net

 

 

 

 

 

 

 

 

 

 

Categories

Earn money $25 as per 1000

103