Watch AEW Dynamite 2020 12 02 Winter Is Coming DX-TV

Watch AEW Dynamite 2020 12 02 Winter Is Coming 720p NWCHD DX-TV

AEW Dynamite 2020 12 02 Winter Is Coming

 

 AEW Dynamite 2020 12 02 Winter Is Coming

 

[su_expand more_text=”Show More Info” less_text=”Close all Info” height=”30″ text_color=”#000000″ link_color=”#e25f8b” link_style=”button” more_icon=”icon: arrow-down” less_icon=”icon: arrow-up”]

 

Complete name : AEW.Dynamite.2020.12.02.Winter.Is.Coming.720p.HDTV.x264-NWCHD.mp4
Format : MPEG-4
Format profile : Base Media
Codec ID : isom
File size : 3.41 GiB
Duration : 1 h 44 min
Overall bit rate : 4 697 kb/s
Writing application : Lavf58.51.101

AEW Dynamite 2020 12 02 Winter Is Coming

Video
ID : 1
Format : AVC
Duration : 1 h 44 min
Bit rate : 4 500 kb/s
Width : 1 280 pixels
Height : 720 pixels
Display aspect ratio : 16:9
Frame rate mode : Variable
frame rate : 29.441 FPS
Color space : YUV
Chroma subsampling : 4:2:0
Bit depth : 8 bits
Scan type : Progressive
Bits/(Pixel*Frame) : 0.163
Stream size : 3.27 GiB (96%)
Color primaries : BT.709
Transfer characteristics : BT.709
Matrix coefficients : BT.709
Codec configuration box : avc

 Dynamite 2020 12 02 Winter Is Coming

Audio
ID : 2
Format : AAC LC
Format/Info : Advanced Audio
Codec ID : mp4a-40-2
Duration : 1 h 44 min
Bit rate mode : Constant
Bit rate : 192 kb/s
Channel(s) : 2 channels
Channel layout : L R
Sampling rate : 48.0 kHz
Frame rate : 46.875 FPS
Compression mode : Lossy
Stream size : 143 MiB (4%)
Title : Stereo
Language : English
Default : Yes
Alternate group : 1

Complete name : AEW.Dynamite.2020.12.02.Winter.Is.Coming.HDTV.x264-NWCHD.mp4
Format : MPEG-4
Format profile : Base Media
Codec ID : isom
File size : 1.16 GiB
Duration : 1 h 44 min
Overall bit rate : 1 598 kb/s
Writing application : Lavf58.27.103

Watch AEW Dynamite 2020 12 02 Winter Is Coming

Video
ID : 1
Format : AVC
Duration : 1 h 44 min
Bit rate : 1 400 kb/s
Width : 704 pixels
Height : 400 pixels
Display aspect ratio : 16:9
Frame rate mode : Variable
Frame rate : 29.970 FPS
Color space : YUV
Chroma subsampling : 4:2:0
Bit depth : 8 bits
Scan type : Progressive
Bits/(Pixel*Frame) : 0.166
Stream size : 1.02 GiB (87%)
Color primaries : BT.709
Transfer characteristics : BT.709
Matrix coefficients : BT.709
Codec configuration box : avc

AEW  2020 12 02 Winter Is Coming

Audio
ID : 2
Format : AAC LC
Format/Info : Advanced Audio
Codec ID : mp4a-40-2
Duration : 1 h 44 min
Bit rate mode : Constant
Bit rate : 192 kb/s
Channel(s) : 2 channels
Channel layout : L R
Sampling rate : 48.0 kHz
Frame rate : 46.875 FPS
Compression mode : Lossy
Stream size : 143 MiB
Title : Stereo
Language : English
Default : Yes
Alternate group : 1

 

 

[/su_expand]

 

 

Watch online

 

Server 1

 

 

 

 

AEW Dynamite 2020 12 02 Winter Is Coming

 

 

 

 

Server-2

 

 

 

 

watch now

 

 

 

 

Uploaded By Site DX-TV.com

 

AEW Dynamite 2020 12 02 Winter Is Coming

 

 

Download Links with premium High Speed   

 

 

 

 

dropapk.to

http://shrt10.com/L4m7nJ
http://shrt10.com/unHB3REAa

 

 

nitroflare.com

http://shrt10.com/lRU3xe
http://shrt10.com/IQkF5Raz

 

 

rapidgator.net

http://shrt10.com/gdNI21S
http://shrt10.com/54YxSlV8C

 

 

uploaded.net

http://shrt10.com/ykPIAXev
http://shrt10.com/PLdZHHT

 

 

uploadgig.com

http://shrt10.com/Wo9uTWn
http://shrt10.com/kMfZYGf

 

https://dx-tv.com/watch-ufc-fox-26-prelims-web-dl-720p/

You May Also Like

Leave a Reply

Your email address will not be published. Required fields are marked *

This site uses Akismet to reduce spam. Learn how your comment data is processed.