Watch Wrestling Free WWE NXT 2020 12 02 Online DX-TV

Watch Wrestling WWE NXT 2020 12 02 720p / 1080p HDTV Star DX-TV

Watch Wrestling WWE NXT

 

 Watch Wrestling WWE NXT

 

[su_expand more_text=”Show More Info” less_text=”Close all Info” height=”30″ text_color=”#000000″ link_color=”#e25f8b” link_style=”button” more_icon=”icon: arrow-down” less_icon=”icon: arrow-up”]

 

Complete name : WWE.NXT.2020.12.02.HDTV.x264-Star.mp4
Format : MPEG-4
Format profile : Base Media
Codec ID : mp42
File size : 948 MiB
Duration : 1 h 30 min
Overall bit rate : 1 464 kb/s

Watch Wrestling WWE NXT

Video
ID : 1
Format : AVC
Format/Info : Advanced Video
Duration : 1 h 30 min
Bit rate : 1 300 kb/s
Width : 720 pixels
Height : 480 pixels
Display aspect ratio : 16:9
Original aspect rat : 16:9
Frame rate mode : Constant
Frame rate : 29.970 FPS
Standard : NTSC
Color space : YUV
Chroma subsampling : 4:2:0
Bit depth : 8 bits
Scan type : Progressive
Bits/(Pixel*Frame) : 0.126
Stream size : 839 MiB (89%)
Color range : Limited
Color primaries : BT.601 NTSC
Transfer characteristics : BT.709
Matrix coefficients : BT.601
Codec configuration box : avc

 Wrestling WWE NXT

Audio
ID : 2
Format : AAC LC
Format/Info : Advanced Audio
Codec ID : mp4a-40-2
Duration : 1 h 30 min
Bit rate mode : Constant
Bit rate : 159 kb/s
Channel(s) : 2 channels
Channel layout : L R
Sampling rate : 48.0 kHz
Frame rate : 46.875 FPS
Compression mode : Lossy
Stream size : 103 Mi
Title : Stereo
Default : Yes
Alternate group : 1

Complete name :WWE.NXT.2020.12.02.720p.HDTV.x264-Star.mkv
Format : Matroska
Format version : Version 4
File size : 3.28 GiB
Duration : 1 h 30 min
Overall bit rate : 5 187 kb/s

Watch Wrestling WWE NXT

Video
ID : 1
Format : AVC
Duration : 1 h 30 min
Bit rate : 5 000 kb/s
Width : 1 280 pixels
Height : 720 pixels
Display aspect ratio : 16:9
Frame rate mode : Constant
Frame rate : 29.970 FPS
Color space : YUV
Chroma subsampling : 4:2:0
Bit depth : 8 bits
Scan type : Progressive
Bits/(Pixel*Frame) : 0.181
Stream size : 3.09 GiB (94%)
Color range : Limited
Color primaries : BT.709
Transfer characteristics : BT.709
Matrix coefficients : BT.709

  WWE NXT

Audio
ID : 2
Format : AC-3
Format/Info : Audio Coding 3
Commercial name : Dolby Digital
Codec ID : A_AC3
Duration : 1 h 30 min
Bit rate mode : Constant
Bit rate : 192 kb/s
Channel(s) : 2 channels
Channel layout : L R
Sampling rate : 48.0 kHz
Frame rate : 31.250 FPS
Compression mode : Lossy
Delay relative to video : -5 ms
Stream size : 124 MiB (4%)
Title : Stereo
Service kind : Complete Main
Default : Yes
Forced : No

 

 

[/su_expand]

 

 

Watch online

 

Server 1

 

 

 

 

Watch Wrestling WWE NXT

 

 

 

 

Server-2

 

 

 

 

watch now

 

 

 

 

Uploaded By Site DX-TV.com

 

 

 

 

Download Free Links with normal and high Speed [ more 14 hosts ]  

 

[su_expand more_text=”Show Hosts Info” less_text=”Close all Info” height=”30″ text_color=”#000000″ link_color=”#e25f8b” link_style=”button” more_icon=”icon: arrow-down” less_icon=”icon: arrow-up”]

Watch Wrestling Free WWE NXT

 

hexupload.net – clicknupload.co – www.multiup.org

– uptobox.com – anonfiles.com – userscloud.com –

dropapk.to alfafile.net – ddownload.com – rockfile.co

– 1fichier.com – filedown.org – katfile.com – filerio.in

 

 

[/su_expand]

 

 

400p 

http://shrt10.com/XUarv
http://shrt10.com/yVsTjWyeo
http://shrt10.com/P50ac
http://shrt10.com/eeUh9xs
http://shrt10.com/8C9rbJ
http://shrt10.com/IAUfz5
http://shrt10.com/avdpOWhH
http://shrt10.com/z4MK9Pu

 

720p

 

http://shrt10.com/BcWWr5u0Z
http://shrt10.com/4Juum
http://shrt10.com/4erXcM84
http://shrt10.com/YxOrJw
http://shrt10.com/IVhGorhUM

 

Watch Wrestling Free WWE NXT

Download Links with premium High Speed   

 

 

dropapk.to

http://shrt10.com/BCOzSP7
http://shrt10.com/fm8cNBg

http://shrt10.com/dyF01TN

 

nitroflare.com

http://shrt10.com/AEnbYzwbt
http://shrt10.com/t3DRHbZIs

http://shrt10.com/sjA7ni

 

rapidgator.net

http://shrt10.com/UOodttm
http://shrt10.com/8KPjArZN

http://shrt10.com/DauP0odgy

 

uploaded.net

http://shrt10.com/4Xuq2p
http://shrt10.com/YMMfx

 

 

uploadgig.com

http://shrt10.com/ishgTrkqM
http://shrt10.com/2cEN7

 

 

 

https://dx-tv.com/wwe-nxt-takeover-in-your-house-2020-free-live-stream/

Leave a Reply

Your email address will not be published. Required fields are marked *

This site uses Akismet to reduce spam. Learn how your comment data is processed.